+ ตอบกลับกระทู้
สรุปผลการค้นหา 1 ถึง 4 จากทั้งหมด 4
  1. #1
    Administrators รูปส่วนตัว Duckload.us
    สมัครเมื่อ
    Dec 2010
    โพสต์
    135,902
    Thanks
    7
    Thanked 140,667 Times in 61,748 Posts

    Thumbs up [ฝรั่ง]-[NETFLIX] Archive 81 (TV Series 2022) แฟ้มลับ 81 Season 1-[WEB-DL.H.264.1080p.] [เสียงไทย+อังกฤษ ]บรรยายไทย + อังกฤษ]





    เรื่องย่อ
    แฟ้มลับ 81 (Archive 81) ติดตามเรื่องราวของแดน เทอร์เนอร์ (มาโมดู อาธี) ผู้เก็บบันทึกเอกสารสำคัญที่รับงานกู้วิดีโอเทปปี 1994 ที่เสียหายชุดหนึ่ง การกู้งานของผู้สร้างภาพยนตร์สารคดีที่ชื่อเมโลดี้ เพนเดรส (ดีนา ชิฮาบี) นี้พาเขาเข้าไปพัวพันกับการสืบสาวเรื่องราวของลัทธิอ ันตรายที่อาคารวิสเซอร์ อะพาร์ตเมนต์ ขณะที่เรื่องราวในซีรีส์ดำเนินไปใน 2 ลำดับเวลานี้ แดนเริ่มหมกมุ่นอยู่กับการค้นหาความจริงว่าเกิดอะไรข ึ้นกับเมโลดี้ เมื่อตัวละคร 2 ตัวเชื่อมโยงถึงกันได้อย่างลี้ลับ แดนเชื่อว่าตัวเองสามารถช่วยให้เธอรอดพ้นจากจุดจบอัน น่าสะพรึงกลัวที่เธอต้องเจอเมื่อ 25 ปีก่อนได้

    เรื่องราวต้นฉบับได้แรงบันดาลใจบางส่วนมาจากพอดแคสต์ ยอดฮิตชื่อเดียวกัน แฟ้มลับ 81 (Archive 81) เป็นซีรีส์แนวระทึกขวัญเหนือธรรมชาติที่อำนวยการสร้า งโดยผู้จัดรีเบคก้า ซอนเนนไชน์ (จาก The Boys และ The Vampire Diaries) เจมส์ วาน และไมเคิล เคลียร์จาก Atomic Monster (ภาพยนตร์ชุด The Conjuring และ Malignant) รีเบคก้า โธมัส (จาก Stranger Things และ Limetown) อันตวน ดูเอฮี (จาก Panic และ The Good Cop) และพอล แฮร์ริส บอร์ดแมน (จาก Deliver Us from Evil)






    Format : Matroska
    Format version : Version 4 / Version 2
    File size : 2.79 GiB
    Duration : 58 min 36 s
    Overall bit rate mode : Variable
    Overall bit rate : 6 812 kb/s
    Movie name : Archive 81 (TV Series 2022) [email protected]
    Encoded date : UTC 2022-01-14 11:55:25
    Writing application : mkvmerge v63.0.0 ('Everything') 64-bit
    Writing library : libebml v1.4.2 + libmatroska v1.6.4

    Video
    ID : 1
    Format : AVC
    Format/Info : Advanced Video Codec
    Format profile : [email protected]
    Format settings, CABAC : Yes
    Format settings, RefFrames : 4 frames
    Codec ID : V_MPEG4/ISO/AVC
    Duration : 58 min 34 s
    Bit rate mode : Variable
    Bit rate : 5 367 kb/s
    Maximum bit rate : 20.0 Mb/s
    Width : 1 920 pixels
    Height : 1 080 pixels
    Display aspect ratio : 16:9
    Frame rate mode : Constant
    Frame rate : 23.976 (24000/1001) FPS
    Color space : YUV
    Chroma subsampling : 4:2:0
    Bit depth : 8 bits
    Scan type : Progressive
    Bits/(Pixel*Frame) : 0.108
    Stream size : 2.20 GiB (79%)
    Writing library : x264 core 148 r2727 7d026e8
    Encoding settings : cabac=1 / ref=4 / deblock=1:0:0 / analyse=0x3:0x111 / me=umh / subme=10 / psy=1 / psy_rd=1.00:0.00 / mixed_ref=1 / me_range=120 / chroma_me=1 / trellis=2 / 8x8dct=1 / cqm=0 / deadzone=21,11 / fast_pskip=1 / chroma_qp_offset=-2 / threads=8 / lookahead_threads=2 / sliced_threads=0 / nr=0 / decimate=1 / interlaced=0 / bluray_compat=0 / stitchable=1 / constrained_intra=0 / bframes=16 / b_pyramid=2 / b_adapt=2 / b_bias=0 / direct=3 / weightb=1 / open_gop=0 / weightp=2 / keyint=240 / keyint_min=121 / scenecut=0 / intra_refresh=0 / rc_lookahead=240 / rc=crf / mbtree=1 / crf=22.0 / qcomp=0.50 / qpmin=6 / qpmax=51 / qpstep=4 / vbv_maxrate=20000 / vbv_bufsize=25000 / crf_max=0.0 / nal_hrd=vbr / filler=0 / ip_ratio=1.40 / aq=1:0.80
    Default : Yes
    Forced : No

    Audio #1
    ID : 2
    Format : E-AC-3
    Format/Info : Enhanced Audio Coding 3
    Format settings, Endianness : Big
    Codec ID : A_EAC3
    Duration : 58 min 36 s
    Bit rate mode : Constant
    Bit rate : 640 kb/s
    Channel(s) : 6 channels
    Channel positions : Front: L C R, Side: L R, LFE
    Sampling rate : 48.0 kHz
    Frame rate : 187.500 FPS (256 SPF)
    Compression mode : Lossy
    Stream size : 268 MiB (9%)
    Title : Thai-DDP 5.1
    Language : Thai
    Service kind : Complete Main
    Default : Yes
    Forced : Yes

    Audio #2
    ID : 3
    Format : E-AC-3
    Format/Info : Enhanced Audio Coding 3
    Format profile : E-AC-3+Atmos / E-AC-3
    Format settings, Endianness : Big
    Codec ID : A_EAC3
    Duration : 58 min 36 s
    Bit rate mode : Constant
    Bit rate : 768 kb/s
    Channel(s) : 15 objects / 6 channels
    Channel positions : 15 objects / Front: L C R, Side: L R, LFE
    Sampling rate : 48.0 kHz
    Frame rate : 187.500 FPS (256 SPF)
    Compression mode : Lossy
    Stream size : 322 MiB (11%)
    Title : English-DDP 5.1
    Language : English
    Service kind : Complete Main
    Default : Yes
    Forced : No

    Text #1
    ID : 4
    Format : PGS
    Muxing mode : zlib
    Codec ID : S_HDMV/PGS
    Codec ID/Info : Picture based subtitle format used on BDs/HD-DVDs
    Duration : 56 min 8 s
    Bit rate : 1 809 b/s
    Count of elements : 44
    Stream size : 744 KiB (0%)
    Title : Thai-FORCED PGS From Original NETFLIX
    Language : Thai
    Default : Yes
    Forced : Yes

    Text #2
    ID : 5
    Format : PGS
    Muxing mode : zlib
    Codec ID : S_HDMV/PGS
    Codec ID/Info : Picture based subtitle format used on BDs/HD-DVDs
    Duration : 56 min 51 s
    Bit rate : 48.6 kb/s
    Count of elements : 1288
    Stream size : 19.8 MiB (1%)
    Title : Thai-PGS From Original NETFLIX
    Language : Thai
    Default : Yes
    Forced : No

    Text #3
    ID : 6
    Format : VobSub
    Muxing mode : zlib
    Codec ID : S_VOBSUB
    Codec ID/Info : Picture based subtitle format used on DVDs
    Duration : 56 min 51 s
    Bit rate : 9 546 b/s
    Count of elements : 644
    Stream size : 3.88 MiB (0%)
    Title : Thai-VOBSUB From Original NETFLIX
    Language : Thai
    Default : Yes
    Forced : No

    Text #4
    ID : 7
    Format : UTF-8
    Codec ID : S_TEXT/UTF8
    Codec ID/Info : UTF-8 Plain Text
    Duration : 55 min 33 s
    Bit rate : 61 b/s
    Count of elements : 781
    Stream size : 25.0 KiB (0%)
    Title : English-SRT
    Language : English
    Default : Yes
    Forced : No





    Download:filecondo
    Archive_.81.2022.S01E08.1080p.NF.APP-DL.DDP5.1.h264.mkv
    http://www.filecondo.com/dl.php?f=Te22981N8Hf7

    Archive_.81.2022.S01E07.1080p.NF.APP-DL.DDP5.1.h264.mkv
    http://www.filecondo.com/dl.php?f=Cf03d51N8Hb3

    Archive_.81.2022.S01E06.1080p.NF.APP-DL.DDP5.1.h264.mkv
    http://www.filecondo.com/dl.php?f=ye50181N8H3C

    Archive_.81.2022.S01E05.1080p.NF.APP-DL.DDP5.1.h264.mkv
    http://www.filecondo.com/dl.php?f=s32f7f1N8GZ7

    Archive_.81.2022.S01E04.1080p.NF.APP-DL.DDP5.1.h264.mkv
    http://www.filecondo.com/dl.php?f=a2756e1N8GXP

    Archive_.81.2022.S01E03.1080p.NF.APP-DL.DDP5.1.h264.mkv
    http://www.filecondo.com/dl.php?f=Tcb86d1N8GVp

    Archive_.81.2022.S01E02.1080p.NF.APP-DL.DDP5.1.h264.mkv
    http://www.filecondo.com/dl.php?f=fed72f1N8GOR

    Archive_.81.2022.S01E01.1080p.NF.APP-DL.DDP5.1.h264.mkv
    http://www.filecondo.com/dl.php?f=z8831f1N8GJV

    Download:cornfile
    Archive.81.แฟมลบ 81.zip - 17.2 GB

  2. The Following User Says Thank You to Duckload.us For This Useful Post:

    whiteherbie (02-16-2022)

  3. #2
    Senior Member
    สมัครเมื่อ
    Jul 2012
    โพสต์
    7,938
    Thanks
    0
    Thanked 0 Times in 0 Posts
    ขอบคุณมากจ้า

  4. #3
    Senior Member
    สมัครเมื่อ
    Jul 2013
    โพสต์
    3,220
    Thanks
    0
    Thanked 0 Times in 0 Posts
    ขอบคุณครับผม

  5. #4
    Senior Member
    สมัครเมื่อ
    Dec 2011
    โพสต์
    2,773
    Thanks
    326
    Thanked 0 Times in 0 Posts
    Thank you ka

+ ตอบกลับกระทู้

ข้อมูลกระทู้

Users Browsing this Thread

ในขณะนี้มี 1 ท่านดูกระทู้อยู่. (0 สมาชิกและ 1 ผู้เยี่ยมชม)

     

กฎการโพสต์ข้อความ

  • ท่าน ไม่สามารถ ตั้งกระทู้ใหม่ได้
  • ท่าน ไม่สามารถ ตอบกระทู้ได้
  • ท่าน ไม่สามารถ แนบไฟล์ได้
  • ท่าน ไม่สามารถ แก้ไขข้อความโพสต์ได้
  • BB code สถานะ เปิด
  • Smilies สถานะ เปิด
  • [IMG] สถานะ เปิด
  • HTML สถานะ ปิด