+ ตอบกลับกระทู้
สรุปผลการค้นหา 1 ถึง 1 จากทั้งหมด 1
  1. #1
    Administrators รูปส่วนตัว Duckload.us
    สมัครเมื่อ
    Dec 2010
    โพสต์
    135,947
    Thanks
    7
    Thanked 140,740 Times in 61,769 Posts

    Thumbs up [จีน] THE LEGEND OF DEIFICATION-King Li Jing (2021) ตำนานราชาแห่งสวรรค์ พากย์:จีน/ไทย มาสเตอร์][SUB:ไทย/อังกฤษ][1080p]



    หลี่จิ้ง (จีน: 李靖; พินอิน: Lǐ Jìng) หรือ ถักทะลีทีอ๋อง (จีน: 托塔李天王; พินอิน: Tuō Tǎ Lǐ Tiān Wáng, "โลกบาลหลี่ผู้ถือเจดีย์", Pagoda-Bearing Heavenly King Li) เป็นหนึ่งในจตุโลกบาลจีนซึ่งตรงกับท้าวเวสสุวรรณ หลี่จิ้งมีบุตรสามคน คือ จินจา มูจา และนาจา

    เดิมหลี่จิ้นเป็นแม่ทัพสมัยราชวงศ์ฮั่นตอนต้น ได้ออกมาล่าสัตว์กับองค์ฮ่องเต้ พระนามว่า จ้าวอ๋อง ทั้งคู่จะดักจับกวางหนุ่มตัวหนึ่ง ขณะนั้นนาจาเป็นเทพเจ้าเด็ก ชอบลงมาบนโลกมนุษย์มาเล่นกับสัตว์ในป่า เมื่อรู้ว่าจ้าวอ๋องผู้มีนิสัยโหดร้ายมาล่าสัตว์ จึงสั่งให้กวางตัวนี้หนีไป แต่กวางตัวนี้ไม่หนี นาจาจึงเอาตัวเข้ารับแทนธนูของแม่ทัพหลี่จิ้งแทน และไปเกิดใหม่ในครรภ์ของภรรยาหลี่จิ้ง เป็นบุตรชายคนที่สามชื่อว่า นาจา [1]

    ภายหลังจากเสียชีวิต หลี่จิ้งได้รับการแต่งตั้งจากองค์เง็กเซียนฮ่องเต้ได ้เป็นขุนพลสวรรค์ มีอาวุธคู่กายคือ เจดีย์ 7 ชั้น ที่เคยจับซุนหงอคงขังเอาไว้ เจดีย์นี้สามารถกักขังได้ทั้งวิญญาณ ภูตผีปีศาจ หรือแม้แต่เทพเจ้า เมื่อหลี่จิ้งจะลงมาโปรดสัตว์โลกจะมีนาจาตามมาด้วยทุ กครั้ง


    เทพสวรรค์หลี่จิง ราชาหลี่ผู้ครอบครองเจดีย์เหล็ก7ชั้นบนสวรรค์และพระบ ิดาของเจ้าชายนาจา เทพสวรรค์หลี่จิงผู้ถือเจดีย์เหล็ก7ชั้นที่สามารถจับ วิญญาณ ปีศาจ หรือเทพเจ้าใดๆ กักขังไว้ในเจดีย์เหล็ก7ชั้นได้ แต่ทุกเรื่องราวล้วนมีจุดเริ่มต้น และนี่คือจุดเริ่มของหลี่จิงในวัยหนุ่มที่เพิ่งลงมาจ ากภูเขาคุนหลุนหลังจากเรียนจบ และมุ่งมั่นที่จะให้ความยุติธรรมแก่ประชาชนและปราบเห ล่าปีศาจที่ชั่วร้าย

    Format : Matroska
    Format version : Version 4
    File size : 4.12 GiB
    Duration : 1 h 20 min
    Overall bit rate : 7 376 kb/s
    Movie name : The Legend of Deification (2021)_©GOLD CUP™_WWW.TT-TORRENT.COM

    Video
    ID : 1
    Format : AVC
    Format/Info : Advanced Video Codec
    Format profile : [email protected]
    Format settings : CABAC / 1 Ref Frames
    Format settings, CABAC : Yes
    Format settings, Reference : 1 frame
    Format settings, GOP : M=1, N=25
    Codec ID : V_MPEG4/ISO/AVC
    Duration : 1 h 20 min
    Bit rate mode : Constant
    Bit rate : 7 026 kb/s
    Width : 1 920 pixels
    Height : 1 080 pixels
    Display aspect ratio : 16:9
    Frame rate mode : Constant
    Frame rate : 25.000 FPS
    Color space : YUV
    Chroma subsampling : 4:2:0
    Bit depth : 8 bits
    Scan type : Progressive
    Bits/(Pixel*Frame) : 0.136
    Stream size : 3.92 GiB (95%)
    Title : The Legend of Deification (2021)_©GOLD CUP™
    Language : English
    Default : Yes
    Forced : No

    Audio #1
    ID : 2
    Format : AAC LC
    Format/Info : Advanced Audio Codec Low Complexity
    Codec ID : A_AAC-2
    Duration : 1 h 20 min
    Bit rate : 192 kb/s
    Channel(s) : 2 channels
    Channel layout : L R
    Sampling rate : 44.1 kHz
    Frame rate : 43.066 FPS (1024 SPF)
    Compression mode : Lossy
    Stream size : 112 MiB (3%)
    Title : Th.AAC.2.0_192 kbs
    Language : Thai
    Default : Yes
    Forced : No

    Audio #2
    ID : 3
    Format : AAC LC
    Format/Info : Advanced Audio Codec Low Complexity
    Codec ID : A_AAC-2
    Duration : 1 h 19 min
    Bit rate : 128 kb/s
    Channel(s) : 2 channels
    Channel layout : L R
    Sampling rate : 44.1 kHz
    Frame rate : 43.066 FPS (1024 SPF)
    Compression mode : Lossy
    Stream size : 72.9 MiB (2%)
    Title : Th.AAC.2.0_128 kbs
    Language : Chinese
    Default : Yes
    Forced : No

    Text #1
    ID : 4
    Format : PGS
    Muxing mode : zlib
    Codec ID : S_HDMV/PGS
    Codec ID/Info : Picture based subtitle format used on BDs/HD-DVDs
    Duration : 1 h 19 min
    Bit rate : 29.1 kb/s
    Count of elements : 2170
    Stream size : 16.6 MiB (0%)
    Title : Th.3.100.90.White
    Language : Thai
    Default : Yes
    Forced : No

    Text #2
    ID : 5
    Format : PGS
    Muxing mode : zlib
    Codec ID : S_HDMV/PGS
    Codec ID/Info : Picture based subtitle format used on BDs/HD-DVDs
    Duration : 1 h 19 min
    Bit rate : 26.5 kb/s
    Count of elements : 2166
    Stream size : 15.1 MiB (0%)
    Title : EN.110.3.83.Blue
    Language : English
    Default : No
    Forced : No





    Download:filecondo
    http://www.filecondo.com/dl.php?f=01112e1NatXG
    Download:cornfile
    https://www.cornfile.com/5db7lqrpw2nx

  2. The Following 2 Users Say Thank You to Duckload.us For This Useful Post:

    Jodz14 (01-22-2022), noi54 (01-21-2022)

+ ตอบกลับกระทู้

ข้อมูลกระทู้

Users Browsing this Thread

ในขณะนี้มี 1 ท่านดูกระทู้อยู่. (0 สมาชิกและ 1 ผู้เยี่ยมชม)

     

กฎการโพสต์ข้อความ

  • ท่าน ไม่สามารถ ตั้งกระทู้ใหม่ได้
  • ท่าน ไม่สามารถ ตอบกระทู้ได้
  • ท่าน ไม่สามารถ แนบไฟล์ได้
  • ท่าน ไม่สามารถ แก้ไขข้อความโพสต์ได้
  • BB code สถานะ เปิด
  • Smilies สถานะ เปิด
  • [IMG] สถานะ เปิด
  • HTML สถานะ ปิด