+ ตอบกลับกระทู้
สรุปผลการค้นหา 1 ถึง 4 จากทั้งหมด 4
  1. #1
    Administrators รูปส่วนตัว Duckload.us
    สมัครเมื่อ
    Dec 2010
    โพสต์
    135,947
    Thanks
    7
    Thanked 140,740 Times in 61,769 Posts

    Thumbs up [NETFLIX] Munich: The Edge of War (2021) มิวนิค ปากเหวสงคราม [พากย์:ไทย5.1 +อังกฤษ5.1][SUB:ไทย+อังกฤษ][1080i/p] Atmos[h264][ซับไทย Original NETFLIX PGS+Vobsub]




    เรื่องย่อ
    ผลงานเรื่องนี้สร้างจากหนังสือขายดีทั่วโลกของโรเบิร ์ต แฮร์ริส ในฤดูใบไม้ร่วงปี 1938 ยุโรปกำลังจะเข้าสู่สงคราม อดอล์ฟ ฮิตเลอร์เตรียมบุกเชโกสโลวาเกีย และรัฐบาลของเนวิลล์ เชมเบอร์เลนก็พยายามทุกวิถีทางที่จะหาทางออกอย่างสัน ติ เมื่อความกดดันทวีขึ้นเรื่อยๆ ฮิวจ์ ลีแกต เจ้าหน้าที่รัฐของอังกฤษ และพอล ฟอน ฮาร์ทมันน์ นักการทูตเยอรมันจึงเดินทางไปมิวนิกเพื่อเข้าประชุมว าระฉุกเฉิน เมื่อการเจรจาต่อรองเริ่มต้นขึ้น เพื่อนเก่าทั้ง 2 คนกลับต้องตกอยู่ท่ามกลางวังวนของกลอุบายทางการเมือง และอันตรายที่แท้จริง ขณะที่ทั่วโลกกำลังเฝ้าจับตามอง ทั้งคู่จะหยุดยั้งสงครามได้หรือไม่ และต้องยอมแลกกับอะไรบ้าง

    Format : Matroska
    Format version : Version 4 / Version 2
    File size : 5.09 GiB
    Duration : 2 h 11 min
    Overall bit rate mode : Variable
    Overall bit rate : 5 553 kb/s
    Movie name : [email protected]
    Encoded date : UTC 2022-01-21 11:01:59
    Writing application : mkvmerge v63.0.0 ('Everything') 64-bit
    Writing library : libebml v1.4.2 + libmatroska v1.6.4

    Video
    ID : 1
    Format : AVC
    Format/Info : Advanced Video Codec
    Format profile : [email protected]
    Format settings, CABAC : Yes
    Format settings, RefFrames : 4 frames
    Codec ID : V_MPEG4/ISO/AVC
    Duration : 2 h 11 min
    Bit rate mode : Variable
    Bit rate : 4 096 kb/s
    Maximum bit rate : 20.0 Mb/s
    Width : 1 920 pixels
    Height : 1 080 pixels
    Display aspect ratio : 16:9
    Frame rate mode : Constant
    Frame rate : 24.000 FPS
    Color space : YUV
    Chroma subsampling : 4:2:0
    Bit depth : 8 bits
    Scan type : Progressive
    Bits/(Pixel*Frame) : 0.082
    Stream size : 3.75 GiB (74%)
    Writing library : x264 core 148 r2727 7d026e8
    Encoding settings : cabac=1 / ref=4 / deblock=1:0:0 / analyse=0x3:0x111 / me=umh / subme=10 / psy=1 / psy_rd=1.00:0.00 / mixed_ref=1 / me_range=120 / chroma_me=1 / trellis=2 / 8x8dct=1 / cqm=0 / deadzone=21,11 / fast_pskip=1 / chroma_qp_offset=-2 / threads=8 / lookahead_threads=2 / sliced_threads=0 / nr=0 / decimate=1 / interlaced=0 / bluray_compat=0 / stitchable=1 / constrained_intra=0 / bframes=16 / b_pyramid=2 / b_adapt=2 / b_bias=0 / direct=3 / weightb=1 / open_gop=0 / weightp=2 / keyint=240 / keyint_min=121 / scenecut=0 / intra_refresh=0 / rc_lookahead=240 / rc=crf / mbtree=1 / crf=30.0 / qcomp=0.50 / qpmin=6 / qpmax=51 / qpstep=4 / vbv_maxrate=20000 / vbv_bufsize=25000 / crf_max=0.0 / nal_hrd=vbr / filler=0 / ip_ratio=1.40 / aq=1:0.80
    Default : Yes
    Forced : No

    Audio #1
    ID : 2
    Format : E-AC-3
    Format/Info : Enhanced Audio Coding 3
    Format settings, Endianness : Big
    Codec ID : A_EAC3
    Duration : 2 h 11 min
    Bit rate mode : Constant
    Bit rate : 640 kb/s
    Channel(s) : 6 channels
    Channel positions : Front: L C R, Side: L R, LFE
    Sampling rate : 48.0 kHz
    Frame rate : 187.500 FPS (256 SPF)
    Compression mode : Lossy
    Stream size : 601 MiB (12%)
    Title : Thai-DDP 5.1
    Language : Thai
    Service kind : Complete Main
    Default : Yes
    Forced : Yes

    Audio #2
    ID : 3
    Format : E-AC-3
    Format/Info : Enhanced Audio Coding 3
    Format profile : E-AC-3+Atmos / E-AC-3
    Format settings, Endianness : Big
    Codec ID : A_EAC3
    Duration : 2 h 11 min
    Bit rate mode : Constant
    Bit rate : 768 kb/s
    Channel(s) : 15 objects / 6 channels
    Channel positions : 15 objects / Front: L C R, Side: L R, LFE
    Sampling rate : 48.0 kHz
    Frame rate : 187.500 FPS (256 SPF)
    Compression mode : Lossy
    Stream size : 721 MiB (14%)
    Title : English-DDP 5.1
    Language : English
    Service kind : Complete Main
    Default : Yes
    Forced : No

    Text #1
    ID : 4
    Format : PGS
    Muxing mode : zlib
    Codec ID : S_HDMV/PGS
    Codec ID/Info : Picture based subtitle format used on BDs/HD-DVDs
    Duration : 2 h 9 min
    Bit rate : 1 698 b/s
    Count of elements : 86
    Stream size : 1.57 MiB (0%)
    Title : Thai-FORCED PGS From Original NETFLIX
    Language : Thai
    Default : Yes
    Forced : Yes

    Text #2
    ID : 5
    Format : PGS
    Muxing mode : zlib
    Codec ID : S_HDMV/PGS
    Codec ID/Info : Picture based subtitle format used on BDs/HD-DVDs
    Duration : 2 h 9 min
    Bit rate : 59.9 kb/s
    Count of elements : 3270
    Stream size : 55.4 MiB (1%)
    Title : Thai-PGS From Original NETFLIX
    Language : Thai
    Default : Yes
    Forced : No

    Text #3
    ID : 6
    Format : VobSub
    Muxing mode : zlib
    Codec ID : S_VOBSUB
    Codec ID/Info : Picture based subtitle format used on DVDs
    Duration : 2 h 9 min
    Bit rate : 11.8 kb/s
    Count of elements : 1635
    Stream size : 10.9 MiB (0%)
    Title : Thai-VOBSUB From Original NETFLIX
    Language : Thai
    Default : Yes
    Forced : No

    Text #4
    ID : 7
    Format : UTF-8
    Codec ID : S_TEXT/UTF8
    Codec ID/Info : UTF-8 Plain Text
    Duration : 2 h 5 min
    Bit rate : 19 b/s
    Count of elements : 569
    Stream size : 17.9 KiB (0%)
    Title : English-SRT
    Language : English
    Default : Yes
    Forced : No










    Download:filecondo
    http://www.filecondo.com/dl.php?f=3712e01NbeoK
    Download:cornfile
    https://www.cornfile.com/xpabx19ysruj

  2. The Following 3 Users Say Thank You to Duckload.us For This Useful Post:

    Jodz14 (01-22-2022), noi54 (01-24-2022), sawara (02-02-2022)

  3. #2
    Junior Member
    สมัครเมื่อ
    Mar 2021
    โพสต์
    18
    Thanks
    0
    Thanked 0 Times in 0 Posts
    filecondo หนังเสียครับ เสียช่วง 01:46:46 รบกวนแก้ไขหน่อยครับ ( ขนาดไฟล์ 4.07gb)

  4. #3
    Senior Member
    สมัครเมื่อ
    Jul 2013
    โพสต์
    3,239
    Thanks
    0
    Thanked 0 Times in 0 Posts
    ขอบคุณครับ 01:46:46 ค้างเลยครับ
    แก้ไขครั้งล่าสุดโดย mirin99 : 01-26-2022 เมื่อ 11:26 AM

  5. #4
    Senior Member
    สมัครเมื่อ
    Dec 2013
    โพสต์
    609
    Thanks
    554
    Thanked 0 Times in 0 Posts
    ขอบคุณครับบ

+ ตอบกลับกระทู้

ข้อมูลกระทู้

Users Browsing this Thread

ในขณะนี้มี 1 ท่านดูกระทู้อยู่. (0 สมาชิกและ 1 ผู้เยี่ยมชม)

     

กฎการโพสต์ข้อความ

  • ท่าน ไม่สามารถ ตั้งกระทู้ใหม่ได้
  • ท่าน ไม่สามารถ ตอบกระทู้ได้
  • ท่าน ไม่สามารถ แนบไฟล์ได้
  • ท่าน ไม่สามารถ แก้ไขข้อความโพสต์ได้
  • BB code สถานะ เปิด
  • Smilies สถานะ เปิด
  • [IMG] สถานะ เปิด
  • HTML สถานะ ปิด