+ ตอบกลับกระทู้
สรุปผลการค้นหา 1 ถึง 5 จากทั้งหมด 5
  1. #1
    Administrators รูปส่วนตัว Duckload.us
    สมัครเมื่อ
    Dec 2010
    โพสต์
    135,947
    Thanks
    7
    Thanked 140,740 Times in 61,769 Posts

    Thumbs up [ฝรั่ง]-Spider Man No Way Home (2021) สไปเดอร์แมน โน เวย์ โฮม - [Soundtrack] [บรรยายไทย(แปล - อนันต์ โพธิสูง)] - 1080p.10bit.HDTC.Rip.x265.HEVC



    Spider-Man: No Way Home ได้เล่าเรื่องราวต่อเนื่องจากเหตุการณ์ในภาคก่อน ปีเตอร์ พาร์คเกอร์ และคนรอบๆ ตัวเขาได้ตกที่นั่งลำบาก เนื่องจาก มิสเทอริโอ ได้ทิ้งบอมบ์ชุดใหญ่เอาไว้ ด้วยการเปิดเผยตัวตนที่แท้ของเขาว่าเป็นใคร ทำให้เขาต้องโร่ไปหา ด็อกเตอร์ สเตรนจ์ เพื่อช่วยแก้ไขสิ่งที่เกิดขึ้น โดยหวังว่าจะบลบความทรงจำคนทั้งโลก เพื่อให้ลืมว่าใครคือไอ้แมงมุมแต่สิ่งไม่คาดคิดได้เก ิดขึ้นระหว่างการร่ายมนตร์คาถา เพราะเขาทำให้หมอเสียสมาธิ กลับกลายเป็นว่าผลลัพธ์ที่ออกมานั้นเป็นหายนะกว่าเดิ ม เพราะเป็นการกำเนิดมัลติเวิร์ส หรือ พหุจักรวาล โลกคู่ขนานต่างๆ ที่ทำให้เขาต้องเผชิญหน้ากับสถานการณ์และวายร้ายเก่า ๆ ที่เคยต่อกรด้วยกันมา และทำให้ทุกอย่างแย่ลงและอันตรายเกินกว่าที่จะรับมือ ได้ด้วยตัวเอง


    Format : Matroska
    Format version : Version 4
    File size : 4.54 GiB
    Duration : 2 h 21 min
    Overall bit rate : 4 608 kb/s
    Encoded date : UTC 2022-01-22 13:58:48
    Writing application : mkvmerge v64.0.0 ('Willows') 64-bit
    Writing library : libebml v1.4.2 + libmatroska v1.6.4
    Cover : Yes
    Attachments : cover.jpg

    Video
    ID : 1
    Format : HEVC
    Format/Info : High Efficiency Video Coding
    Format profile : Main [email protected]@High
    Codec ID : V_MPEGH/ISO/HEVC
    Duration : 2 h 21 min
    Bit rate : 4 269 kb/s
    Width : 1 920 pixels
    Height : 792 pixels
    Display aspect ratio : 2.40:1
    Frame rate mode : Constant
    Frame rate : 30.000 FPS
    Color space : YUV
    Chroma subsampling : 4:2:0
    Bit depth : 10 bits
    Bits/(Pixel*Frame) : 0.094
    Stream size : 4.21 GiB (93%)
    Default : Yes
    Forced : No
    Color range : Limited
    Color primaries : BT.709
    Transfer characteristics : BT.709
    Matrix coefficients : BT.709

    Audio
    ID : 2
    Format : AC-3
    Format/Info : Audio Coding 3
    Commercial name : Dolby Digital
    Codec ID : A_AC3
    Duration : 2 h 21 min
    Bit rate mode : Constant
    Bit rate : 320 kb/s
    Channel(s) : 6 channels
    Channel layout : L R C LFE Ls Rs
    Sampling rate : 48.0 kHz
    Frame rate : 31.250 FPS (1536 SPF)
    Compression mode : Lossy
    Delay relative to video : -5 ms
    Stream size : 323 MiB (7%)
    Language : English
    Service kind : Complete Main
    Default : No
    Forced : No

    Text #1
    ID : 3
    Format : UTF-8
    Codec ID : S_TEXT/UTF8
    Codec ID/Info : UTF-8 Plain Text
    Duration : 2 h 20 min
    Bit rate : 139 b/s
    Count of elements : 2058
    Stream size : 144 KiB (0%)
    Language : Thai
    Default : Yes
    Forced : No

    Text #2
    ID : 4
    Format : PGS
    Muxing mode : zlib
    Codec ID : S_HDMV/PGS
    Codec ID/Info : Picture based subtitle format used on BDs/HD-DVDs
    Duration : 2 h 20 min
    Bit rate : 30.4 kb/s
    Count of elements : 4116
    Stream size : 30.7 MiB (1%)
    Language : Thai
    Default : No
    Forced : No









    HDTC+SUB;TH [บรรยายไทย(แปล - อนันต์ โพธิสูง)]
    Download:filecondo
    http://www.filecondo.com/dl.php?f=i379cd1Nbtq1
    Download:cornfile
    https://www.cornfile.com/75l2dfkrwl5o

    HDTC+THR
    Download:filecondo
    http://www.filecondo.com/dl.php?f=Hccef21NbfjP
    Spider Man No Way Home (2021).mp4 - 8.1 GB
    Download:cornfile
    https://www.cornfile.com/1vlz2uxrufeq
    Spider Man No Way Home (2021).mp4 - 8.1 GB

  2. The Following 5 Users Say Thank You to Duckload.us For This Useful Post:

    jackjangri (01-23-2022), jangska (01-24-2022), kappa (02-11-2022), noi54 (01-24-2022), Wesker_TOT (01-23-2022)

  3. #2
    Senior Member
    สมัครเมื่อ
    Dec 2013
    โพสต์
    3,657
    Thanks
    5,563
    Thanked 0 Times in 0 Posts
    ขอบคุณครับ...

  4. #3
    I'm donate !
    สมัครเมื่อ
    Jun 2011
    โพสต์
    426
    Thanks
    580
    Thanked 40 Times in 29 Posts
    ขอบคุณครับ...

  5. #4
    Senior Member
    สมัครเมื่อ
    Jul 2013
    โพสต์
    3,239
    Thanks
    0
    Thanked 0 Times in 0 Posts
    ขอบคุณครับ

  6. #5
    Junior Member
    สมัครเมื่อ
    Feb 2014
    โพสต์
    22
    Thanks
    12
    Thanked 0 Times in 0 Posts
    ขอบคุณครับ

+ ตอบกลับกระทู้

ข้อมูลกระทู้

Users Browsing this Thread

ในขณะนี้มี 1 ท่านดูกระทู้อยู่. (0 สมาชิกและ 1 ผู้เยี่ยมชม)

     

กฎการโพสต์ข้อความ

  • ท่าน ไม่สามารถ ตั้งกระทู้ใหม่ได้
  • ท่าน ไม่สามารถ ตอบกระทู้ได้
  • ท่าน ไม่สามารถ แนบไฟล์ได้
  • ท่าน ไม่สามารถ แก้ไขข้อความโพสต์ได้
  • BB code สถานะ เปิด
  • Smilies สถานะ เปิด
  • [IMG] สถานะ เปิด
  • HTML สถานะ ปิด