+ ตอบกลับกระทู้
สรุปผลการค้นหา 1 ถึง 2 จากทั้งหมด 2
  1. #1
    Administrators รูปส่วนตัว Duckload.us
    สมัครเมื่อ
    Dec 2010
    โพสต์
    135,947
    Thanks
    7
    Thanked 140,740 Times in 61,769 Posts

    Thumbs up [ฝรั่ง]-[NEW] Spider Man No Way Home 2021 HDTC 1080P H264 THAIRONG สไปเดอร์แมน โนเวย์โฮม-WEB-DL.H.264.1080p. [Modified]-[พากย์ไทยโรง]



    Spider-Man: No Way Home ได้เล่าเรื่องราวต่อเนื่องจากเหตุการณ์ในภาคก่อน ปีเตอร์ พาร์คเกอร์ และคนรอบๆ ตัวเขาได้ตกที่นั่งลำบาก เนื่องจาก มิสเทอริโอ ได้ทิ้งบอมบ์ชุดใหญ่เอาไว้ ด้วยการเปิดเผยตัวตนที่แท้ของเขาว่าเป็นใคร ทำให้เขาต้องโร่ไปหา ด็อกเตอร์ สเตรนจ์ เพื่อช่วยแก้ไขสิ่งที่เกิดขึ้น โดยหวังว่าจะบลบความทรงจำคนทั้งโลก เพื่อให้ลืมว่าใครคือไอ้แมงมุมแต่สิ่งไม่คาดคิดได้เก ิดขึ้นระหว่างการร่ายมนตร์คาถา เพราะเขาทำให้หมอเสียสมาธิ กลับกลายเป็นว่าผลลัพธ์ที่ออกมานั้นเป็นหายนะกว่าเดิ ม เพราะเป็นการกำเนิดมัลติเวิร์ส หรือ พหุจักรวาล โลกคู่ขนานต่างๆ ที่ทำให้เขาต้องเผชิญหน้ากับสถานการณ์และวายร้ายเก่า ๆ ที่เคยต่อกรด้วยกันมา และทำให้ทุกอย่างแย่ลงและอันตรายเกินกว่าที่จะรับมือ ได้ด้วยตัวเอง

    Format : Matroska
    Format version : Version 4
    File size : 5.07 GiB
    Duration : 2 h 20 min
    Overall bit rate : 5 147 kb/s
    Encoded date : UTC 2022-01-22 12:39:22
    Writing application : mkvmerge v64.0.0 ('Willows') 64-bit
    Writing library : libebml v1.4.2 + libmatroska v1.6.4
    Cover : Yes
    Attachments : cover.jpg

    Video
    ID : 1
    Format : AVC
    Format/Info : Advanced Video Codec
    Format profile : [email protected]
    Format settings : CABAC / 4 Ref Frames
    Format settings, CABAC : Yes
    Format settings, Reference frames : 4 frames
    Codec ID : V_MPEG4/ISO/AVC
    Duration : 2 h 20 min
    Bit rate : 4 024 kb/s
    Width : 1 920 pixels
    Height : 792 pixels
    Display aspect ratio : 2.40:1
    Frame rate mode : Constant
    Frame rate : 30.000 FPS
    Color space : YUV
    Chroma subsampling : 4:2:0
    Bit depth : 8 bits
    Scan type : Progressive
    Bits/(Pixel*Frame) : 0.088
    Stream size : 3.96 GiB (78%)
    Writing library : x264 core 164 r3065 ae03d92
    Encoding settings : cabac=1 / ref=2 / deblock=1:0:0 / analyse=0x1:0x111 / me=hex / subme=6 / psy=1 / psy_rd=1.00:0.00 / mixed_ref=1 / me_range=16 / chroma_me=1 / trellis=1 / 8x8dct=0 / cqm=0 / deadzone=21,11 / fast_pskip=1 / chroma_qp_offset=-2 / threads=18 / lookahead_threads=3 / sliced_threads=0 / nr=0 / decimate=1 / interlaced=0 / bluray_compat=0 / constrained_intra=0 / bframes=3 / b_pyramid=2 / b_adapt=1 / b_bias=0 / direct=1 / weightb=1 / open_gop=0 / weightp=1 / keyint=300 / keyint_min=30 / scenecut=40 / intra_refresh=0 / rc_lookahead=30 / rc=crf / mbtree=1 / crf=22.0 / qcomp=0.60 / qpmin=0 / qpmax=69 / qpstep=4 / vbv_maxrate=20000 / vbv_bufsize=25000 / crf_max=0.0 / nal_hrd=none / filler=0 / ip_ratio=1.40 / aq=1:1.00
    Default : Yes
    Forced : No
    Color range : Limited
    Color primaries : BT.709
    Transfer characteristics : BT.709
    Matrix coefficients : BT.709

    Audio #1
    ID : 2
    Format : AC-3
    Format/Info : Audio Coding 3
    Commercial name : Dolby Digital
    Codec ID : A_AC3
    Duration : 2 h 20 min
    Bit rate mode : Constant
    Bit rate : 320 kb/s
    Channel(s) : 2 channels
    Channel layout : L R
    Sampling rate : 48.0 kHz
    Frame rate : 31.250 FPS (1536 SPF)
    Compression mode : Lossy
    Delay relative to video : 6 ms
    Stream size : 323 MiB (6%)
    Language : English
    Service kind : Complete Main
    Default : No
    Forced : No

    Audio #2
    ID : 3
    Format : AAC LC
    Format/Info : Advanced Audio Codec Low Complexity
    Codec ID : A_AAC-2
    Duration : 2 h 20 min
    Bit rate : 160 kb/s
    Channel(s) : 2 channels
    Channel layout : L R
    Sampling rate : 48.0 kHz
    Frame rate : 46.875 FPS (1024 SPF)
    Compression mode : Lossy
    Delay relative to video : -21 ms
    Stream size : 162 MiB (3%)
    Title : Stereo
    Language : English
    Default : No
    Forced : No

    Audio #3
    ID : 4
    Format : AC-3
    Format/Info : Audio Coding 3
    Commercial name : Dolby Digital
    Codec ID : A_AC3
    Duration : 2 h 20 min
    Bit rate mode : Constant
    Bit rate : 640 kb/s
    Channel(s) : 2 channels
    Channel layout : L R
    Sampling rate : 48.0 kHz
    Frame rate : 31.250 FPS (1536 SPF)
    Compression mode : Lossy
    Delay relative to video : 6 ms
    Stream size : 645 MiB (12%)
    Title : ThaiRong
    Language : Thai
    Service kind : Complete Main
    Default : Yes
    Forced : Yes



    Download:filecondo
    http://www.filecondo.com/dl.php?f=ba823c1NbSpL
    Download:cornfile
    https://www.cornfile.com/i5l7v82vkzxg

  2. The Following 4 Users Say Thank You to Duckload.us For This Useful Post:

    jangska (01-24-2022), noi54 (01-27-2022), phantommon (01-24-2022), Wesker_TOT (01-24-2022)

  3. #2
    Senior Member
    สมัครเมื่อ
    Dec 2013
    โพสต์
    3,657
    Thanks
    5,563
    Thanked 0 Times in 0 Posts
    ขอบคุณครับ...

+ ตอบกลับกระทู้

ข้อมูลกระทู้

Users Browsing this Thread

ในขณะนี้มี 1 ท่านดูกระทู้อยู่. (0 สมาชิกและ 1 ผู้เยี่ยมชม)

     

กฎการโพสต์ข้อความ

  • ท่าน ไม่สามารถ ตั้งกระทู้ใหม่ได้
  • ท่าน ไม่สามารถ ตอบกระทู้ได้
  • ท่าน ไม่สามารถ แนบไฟล์ได้
  • ท่าน ไม่สามารถ แก้ไขข้อความโพสต์ได้
  • BB code สถานะ เปิด
  • Smilies สถานะ เปิด
  • [IMG] สถานะ เปิด
  • HTML สถานะ ปิด