+ ตอบกลับกระทู้
สรุปผลการค้นหา 1 ถึง 4 จากทั้งหมด 4
  1. #1
    Administrators รูปส่วนตัว Duckload.us
    สมัครเมื่อ
    Dec 2010
    โพสต์
    135,902
    Thanks
    7
    Thanked 140,670 Times in 61,749 Posts

    Thumbs up [ฝรั่ง]-Halloween Kills (2021) ฮาโลวีนสังหาร Extended.Cut พากย์ไทย 7.1 /ซับไทย-Encode.MPEG-2.1080p. [Modified]-[พากย์ไทย บรรยายไทย]




    ไม่กี่นาที หลังจากลอรี สโตรด (เจมี ลี เคอร์ติส) คาเรน (จูดี้ เกรียร์) ลูกสาวของเธอ และแอลลีสัน (แอนดี้ มาติชัค) หลานสาวของเธอทิ้งไมเคิล ไมเยอร์ส อสูรที่สวมหน้ากาก โดยขังให้ถูกเผาในห้องใต้ดินของลอรี ลอรี่ถูกรีบนำตัวส่งโรงพยาบาลด้วยอาการบาดเจ็บที่คุก คามชีวิต โดยเชื่อว่าในที่สุด เธอก็ได้สังหาร ผู้ทรมานตลอดชีวิตของเธอ แต่เมื่อไมเคิลสามารถหลุดพ้นจากกับดักของลอรี การนองเลือดโดยฝีมือของเขาก็กลับมาอีกครั้ง ขณะที่ลอรีต่อสู้กับความเจ็บปวดของเธอและเตรียมป้องก ันตัวเองจากเขา เธอเป็นแรงบันดาลใจให้ชาวแฮดดอนฟิลด์ทุกคนลุกขึ้นสู้ กับอสูรร้ายที่ไม่มีใครหยุดยั้งได้ สาว ๆ สโตรดเข้าร่วมกับกลุ่มผู้รอดชีวิตคนอื่น ๆ จากอาละวาดครั้งแรกของไมเคิล ซึ่งตัดสินใจจัดการเรื่องนี้ด้วยมือของพวกเขาเอง ก่อตัวเป็นกลุ่มเฝ้าระวังที่ตั้งใจจะไล่ล่าไมเคิลทัน ทีและตลอดไป ปีศาจสิ้นชีวิตคืนนี้

    Halloween Kills 2021Halloween.Kills.Extended.Cut.2021..mkv
    Format : Matroska
    Format version : Version 4
    File size : 8.83 GiB
    Duration : 1 h 49 min
    Overall bit rate : 11.6 Mb/s
    Encoded date : UTC 2022-01-24 07:07:45
    Writing application : mkvmerge v47.0.0 ('Black Flag') 64-bit
    Writing library : libebml v1.3.10 + libmatroska v1.5.2

    Video
    ID : 1
    Format : AVC
    Format/Info : Advanced Video Codec
    Format profile : [email protected]
    Format settings : CABAC / 5 Ref Frames
    Format settings, CABAC : Yes
    Format settings, Reference : 5 frames
    Codec ID : V_MPEG4/ISO/AVC
    Duration : 1 h 49 min
    Bit rate : 10.0 Mb/s
    Width : 1 918 pixels
    Height : 802 pixels
    Display aspect ratio : 2.40:1
    Frame rate mode : Constant
    Frame rate : 23.976 (24000/1001) FPS
    Color space : YUV
    Chroma subsampling : 4:2:0
    Bit depth : 8 bits
    Scan type : Progressive
    Bits/(Pixel*Frame) : 0.272
    Stream size : 7.65 GiB (87%)
    Default : Yes
    Forced : No
    Color range : Limited
    Color primaries : BT.709
    Transfer characteristics : BT.709
    Matrix coefficients : BT.709

    Audio #1
    ID : 2
    Format : E-AC-3 JOC
    Format/Info : Enhanced AC-3 with Joint Object Coding
    Commercial name : Dolby Digital Plus with Dolby Atmos
    Codec ID : A_EAC3
    Duration : 1 h 49 min
    Bit rate mode : Constant
    Bit rate : 768 kb/s
    Channel(s) : 6 channels
    Channel layout : L R C LFE Ls Rs
    Sampling rate : 48.0 kHz
    Frame rate : 31.250 FPS (1536 SPF)
    Compression mode : Lossy
    Stream size : 599 MiB (7%)
    Title : English
    Language : English
    Service kind : Complete Main
    Default : No
    Forced : No
    Complexity index : 16
    Number of dynamic objects : 15
    Bed channel count : 1 channel
    Bed channel configuration : LFE

    Audio #2
    ID : 3
    Format : E-AC-3
    Format/Info : Enhanced AC-3
    Commercial name : Dolby Digital Plus
    Format profile : Blu-ray Disc
    Codec ID : A_EAC3
    Duration : 1 h 49 min
    Bit rate mode : Constant
    Bit rate : 768 kb/s
    Channel(s) : 8 channels
    Channel layout : L R C LFE Ls Rs Lb Rb
    Sampling rate : 48.0 kHz
    Frame rate : 31.250 FPS (1536 SPF)
    Compression mode : Lossy
    Stream size : 600 MiB (7%)
    Language : Thai
    Service kind : Complete Main
    Default : Yes
    Forced : No

    Text
    ID : 4
    Format : PGS
    Muxing mode : zlib
    Codec ID : S_HDMV/PGS
    Codec ID/Info : Picture based subtitle format used on BDs/HD-DVDs
    Duration : 1 h 48 min
    Bit rate : 22.9 kb/s
    Count of elements : 2524
    Stream size : 17.7 MiB (0%)
    Language : Thai
    Default : Yes
    Forced : No





    Download:filecondo
    Halloween.Kills.Extended.Cut.1080p.2021_GOLD CUP.mkv - 4.9 GB
    Halloween.Kills.Extended.Cut.2021mkv - 8.8 GB

    Download:cornfile
    Halloween.Kills.Extended.Cut.1080p.2021_GOLD CUP.mkv - 4.9 GB
    Halloween.Kills.Extended.Cut.2021mkv - 8.8 GB

  2. The Following 8 Users Say Thank You to Duckload.us For This Useful Post:

    bigbang06 (01-24-2022), jackjangri (01-25-2022), Jodz14 (01-24-2022), NaiWan (01-31-2022), noi54 (01-26-2022), peugeot (01-25-2022), Tellmon (03-12-2022), Wesker_TOT (01-25-2022)

  3. #2
    Senior Member
    สมัครเมื่อ
    Dec 2013
    โพสต์
    3,649
    Thanks
    5,555
    Thanked 0 Times in 0 Posts
    ขอบคุณครับ...

  4. #3
    I'm donate !
    สมัครเมื่อ
    Jun 2011
    โพสต์
    422
    Thanks
    576
    Thanked 40 Times in 29 Posts
    ขอบคุณครับ...

  5. #4
    Senior Member
    สมัครเมื่อ
    Jul 2013
    โพสต์
    3,220
    Thanks
    0
    Thanked 0 Times in 0 Posts
    ขอบคุณครับ

+ ตอบกลับกระทู้

ข้อมูลกระทู้

Users Browsing this Thread

ในขณะนี้มี 1 ท่านดูกระทู้อยู่. (0 สมาชิกและ 1 ผู้เยี่ยมชม)

     

กฎการโพสต์ข้อความ

  • ท่าน ไม่สามารถ ตั้งกระทู้ใหม่ได้
  • ท่าน ไม่สามารถ ตอบกระทู้ได้
  • ท่าน ไม่สามารถ แนบไฟล์ได้
  • ท่าน ไม่สามารถ แก้ไขข้อความโพสต์ได้
  • BB code สถานะ เปิด
  • Smilies สถานะ เปิด
  • [IMG] สถานะ เปิด
  • HTML สถานะ ปิด