+ ตอบกลับกระทู้
สรุปผลการค้นหา 1 ถึง 7 จากทั้งหมด 7
  1. #1
    Administrators รูปส่วนตัว Duckload.us
    สมัครเมื่อ
    Dec 2010
    โพสต์
    135,902
    Thanks
    7
    Thanked 140,668 Times in 61,748 Posts

    Thumbs up [ฝรั่ง]-The Matrix Resurrections (2021) : เดอะ เมทริกซ์ ภาค 4 เรเซอเร็คชั่นส์ [1080p]-[พากย์: อังกฤษ + ไทย มาสเตอร์]-[SUB:ไทย + อังกฤษ]-MiniBD.H.265.1080p. [Rip]-[พากย์ไทย บรรยายไทย]



    การหวนสู่โลกที่มีความจริง 2 ด้าน ด้านแรกคือชีวิตประจำวัน ส่วนอีกด้านหนึ่งคือสิ่งที่ซ่อนอยู่ เพื่อหาคำตอบว่าความจริงของเขาเป็นสิ่งที่จับต้องได้ หรือเป็นเพียงสิ่งที่เกิดขึ้นในจิตใจ เพื่อเข้าใจตัวตนที่แท้จริงของตัวเอง คุณแอนเดอร์สัน ต้องเลือกตามกระต่ายขาวไปอีกครั้ง และหาก โธมัส นีโอ ได้เรียนรู้อะไรขึ้นมา นั่นคือทางเลือก ส่วนภาพหลอนที่เกิดขึ้นยังคงเป็นทางออกเดียวหรือเข้า สู่ เดอะ เมทริกซ์ แน่นอนว่า นีโอ รู้อยู่แล้วว่าต้องทำอะไรบ้าง แต่เขายังไม่รู้ว่า เดอะ เมทริกซ์ แข็งแกร่ง ปลอดภัย และอันตรายมากกว่าเดิม

    Format : Matroska
    Format version : Version 4
    File size : 5.28 GiB
    Duration : 2 h 27 min
    Overall bit rate mode : Variable
    Overall bit rate : 5 113 kb/s
    Movie name : The.Matrix.4.Resurrections.2021.WEBRip.x264.Thi.MS T_©GOLD CUP™_WWW.TT-TORRENT.COM
    Encoded date : UTC 2022-01-26 16:50:13
    Writing application : mkvmerge v64.0.0 ('Willows') 64-bit
    Writing library : libebml v1.4.2 + libmatroska v1.6.4
    Cover : Yes
    Attachments : cover

    Video
    ID : 1
    Format : AVC
    Format/Info : Advanced Video Codec
    Format profile : [email protected]
    Format settings : CABAC / 1 Ref Frames
    Format settings, CABAC : Yes
    Format settings, Reference frames : 1 frame
    Format settings, GOP : M=1, N=25
    Codec ID : V_MPEG4/ISO/AVC
    Duration : 2 h 27 min
    Bit rate mode : Constant
    Bit rate : 3 546 kb/s
    Width : 1 920 pixels
    Height : 816 pixels
    Display aspect ratio : 2.35:1
    Frame rate mode : Constant
    Frame rate : 23.976 (24000/1001) FPS
    Color space : YUV
    Chroma subsampling : 4:2:0
    Bit depth : 8 bits
    Scan type : Progressive
    Bits/(Pixel*Frame) : 0.094
    Stream size : 3.66 GiB (69%)
    Title : The.Matrix.4.Resurrections.2021.WEBRip.x264.Thi.MS T_©GOLD CUP™
    Language : English
    Default : Yes
    Forced : No

    Audio #1
    ID : 2
    Format : AC-3
    Format/Info : Audio Coding 3
    Commercial name : Dolby Digital
    Codec ID : A_AC3
    Duration : 2 h 27 min
    Bit rate mode : Constant
    Bit rate : 192 kb/s
    Channel(s) : 2 channels
    Channel layout : L R
    Sampling rate : 48.0 kHz
    Frame rate : 31.250 FPS (1536 SPF)
    Compression mode : Lossy
    Stream size : 203 MiB (4%)
    Title : Th.2.0.AC3.192k
    Language : Thai
    Service kind : Complete Main
    Default : Yes
    Forced : No

    Audio #2
    ID : 3
    Format : E-AC-3 JOC
    Format/Info : Enhanced AC-3 with Joint Object Coding
    Commercial name : Dolby Digital Plus with Dolby Atmos
    Codec ID : A_EAC3
    Duration : 2 h 27 min
    Bit rate mode : Constant
    Bit rate : 768 kb/s
    Channel(s) : 6 channels
    Channel layout : L R C LFE Ls Rs
    Sampling rate : 48.0 kHz
    Frame rate : 31.250 FPS (1536 SPF)
    Compression mode : Lossy
    Stream size : 813 MiB (15%)
    Title : En.5.1.Dolby Digital Plus with Dolby Atmos
    Language : English
    Service kind : Complete Main
    Default : No
    Forced : No
    Complexity index : 16
    Number of dynamic objects : 15
    Bed channel count : 1 channel
    Bed channel configuration : LFE

    Audio #3
    ID : 4
    Format : FLAC
    Format/Info : Free Lossless Audio Codec
    Codec ID : A_FLAC
    Duration : 2 h 27 min
    Bit rate mode : Variable
    Bit rate : 561 kb/s
    Channel(s) : 2 channels
    Channel layout : L R
    Sampling rate : 96.0 kHz
    Frame rate : 11.719 FPS (8192 SPF)
    Bit depth : 16 bits
    Compression mode : Lossless
    Stream size : 594 MiB (11%)
    Title : Th.2.0.Flac._Sample Rate 96000
    Language : Thai
    Default : Yes
    Forced : No

    Text #1
    ID : 5
    Format : PGS
    Muxing mode : zlib
    Codec ID : S_HDMV/PGS
    Codec ID/Info : Picture based subtitle format used on BDs/HD-DVDs
    Duration : 2 h 27 min
    Bit rate : 28.8 kb/s
    Count of elements : 3558
    Stream size : 30.3 MiB (1%)
    Title : Th.3.100.90.White
    Language : Thai
    Default : Yes
    Forced : No

    Text #2
    ID : 6
    Format : PGS
    Muxing mode : zlib
    Codec ID : S_HDMV/PGS
    Codec ID/Info : Picture based subtitle format used on BDs/HD-DVDs
    Duration : 2 h 27 min
    Bit rate : 27.9 kb/s
    Count of elements : 3620
    Stream size : 29.4 MiB (1%)
    Title : EN.110.3.83.Yellow
    Language : English
    Default : No
    Forced : No

    Text #3
    ID : 7
    Format : PGS
    Muxing mode : zlib
    Codec ID : S_HDMV/PGS
    Codec ID/Info : Picture based subtitle format used on BDs/HD-DVDs
    Duration : 2 h 27 min
    Bit rate : 32.8 kb/s
    Count of elements : 4378
    Stream size : 34.6 MiB (1%)
    Title : EN.SDH.110.3.83.Green
    Language : English
    Default : No
    Forced : No




    Download:filecondo
    http://www.filecondo.com/dl.php?f=H18a1d1Nd3Yj
    Download:cornfile
    https://www.cornfile.com/ank901ueg8hb


    ********************************************
    {Super_Mini-HD_1080p_HQ}_The_Matrix_Revolutions_2003_BluRay_10 80p_DTS_x264-จิ้งจอกเก้าหาง_.mkv
    http://www.filecondo.com/dl.php?f=u0c1391Nd4mX
    {Super_Mini-HD_1080p_HQ}_The_Matrix_Reloaded_2003_BluRay_1080p _DTS_x264-จิ้งจอกเก้าหาง_.mkv
    http://www.filecondo.com/dl.php?f=G082421Nd4gp
    {Super_Mini-HD_1080p_HQ}_The_Matrix_1999_BluRay_1080p_DTS_x264-จิ้งจอกเก้าหาง_.mkv
    http://www.filecondo.com/dl.php?f=fe2cee1Nd48L

    Super Mini-HD 1080p HQ The Matrix 1999 BluRay 1080p DTS x264-จงจอกเกาหาง .mkv - 4.4 GB
    Super Mini-HD 1080p HQ The Matrix Reloaded 2003 BluRay 1080p DTS x264-จงจอกเกาหาง .mkv - 4.3 GB
    Super Mini-HD 1080p HQ The Matrix Revolutions 2003 BluRay 1080p DTS x264-จงจอกเกาหาง .mkv - 4.3 GB

  2. The Following 8 Users Say Thank You to Duckload.us For This Useful Post:

    bigbang06 (01-27-2022), dulobobo (01-27-2022), Jodz14 (01-27-2022), noi54 (01-27-2022), santanmoon (01-28-2022), sawara (01-31-2022), Tellmon (02-24-2022), Wesker_TOT (01-28-2022)

  3. #2
    Senior Member
    สมัครเมื่อ
    Jul 2013
    โพสต์
    3,220
    Thanks
    0
    Thanked 0 Times in 0 Posts
    ขอบคุณครับ

  4. #3
    Member
    สมัครเมื่อ
    Nov 2021
    โพสต์
    38
    Thanks
    0
    Thanked 0 Times in 0 Posts
    ขอบคุณครับ

  5. #4
    Senior Member
    สมัครเมื่อ
    Jun 2014
    โพสต์
    5,310
    Thanks
    0
    Thanked 0 Times in 0 Posts
    ขอบคุณครับ

  6. #5
    Member
    สมัครเมื่อ
    Apr 2017
    โพสต์
    89
    Thanks
    444
    Thanked 0 Times in 0 Posts
    ขอบคุณมากๆ ค้าบ

  7. #6
    Senior Member
    สมัครเมื่อ
    Dec 2013
    โพสต์
    3,648
    Thanks
    5,554
    Thanked 0 Times in 0 Posts
    ขอบคุณครับ...

  8. #7
    Senior Member
    สมัครเมื่อ
    Dec 2013
    โพสต์
    609
    Thanks
    554
    Thanked 0 Times in 0 Posts
    ขอบคุณครับบ

+ ตอบกลับกระทู้

ข้อมูลกระทู้

Users Browsing this Thread

ในขณะนี้มี 1 ท่านดูกระทู้อยู่. (0 สมาชิกและ 1 ผู้เยี่ยมชม)

     

กฎการโพสต์ข้อความ

  • ท่าน ไม่สามารถ ตั้งกระทู้ใหม่ได้
  • ท่าน ไม่สามารถ ตอบกระทู้ได้
  • ท่าน ไม่สามารถ แนบไฟล์ได้
  • ท่าน ไม่สามารถ แก้ไขข้อความโพสต์ได้
  • BB code สถานะ เปิด
  • Smilies สถานะ เปิด
  • [IMG] สถานะ เปิด
  • HTML สถานะ ปิด