+ ตอบกลับกระทู้
สรุปผลการค้นหา 1 ถึง 4 จากทั้งหมด 4
  1. #1
    Administrators รูปส่วนตัว Duckload.us
    สมัครเมื่อ
    Dec 2010
    โพสต์
    135,902
    Thanks
    7
    Thanked 140,667 Times in 61,748 Posts

    Thumbs up [ฝรั่ง] GHOSTBUSTERS AFTERLIFE (2021) โกสต์บัสเตอร์ ปลุกพลังล่าท้าผี พากย์:อังกฤษ/ไทย มาสเตอร์][SUB:ไทย/อังกฤษ][1080p]



    โกสต์บัสเตอร์: ปลุกพลังล่าท้าผี จะเป็นเรื่องราวที่มาเล่าในยุคปัจจุบัน ทิ้งห่างระยะเวลาพอสมควรจากเหตุการณ์ที่เกิดขึ้นในภา พยนตร์เวอร์ชั่นปี 1984 และ 1989 เมื่อครอบครัวได้ย้ายบ้านกลับไปสู่บ้านคุณตา สถานที่แห่งนั้นซ่อนความลับที่คุณตาและผองเพื่อนเคยท ำร่วมกันเอาไว้ พร้อมกันนั้นภัยร้ายจากเหล่าผีประหลาดก็เริ่มคุกคามเ มือง
    เมื่อแม่เลี้ยงเดี่ยวและลูกๆ สองคนของเธอมาถึงเมืองเล็กๆ แห่งหนึ่ง พวกเขาเริ่มค้นพบความเชื่อมโยงกับ Ghostbusters ดั้งเดิมและมรดกลับที่ปู่ของพวกเขาทิ้งไว้เบื้องหลัง


    Format : Matroska
    Format version : Version 4
    File size : 5.70 GiB
    Duration : 2 h 3 min
    Overall bit rate : 6 590 kb/s
    Movie name : Ghostbusters.Afterlife.2021.1080p.WEBRip.x264.Thi. MST_©GOLD CUP™_WWW.TT-TORRENT.COM

    Video
    ID : 1
    Format : AVC
    Format/Info : Advanced Video Codec
    Format profile : [email protected]
    Format settings : CABAC / 4 Ref Frames
    Format settings, CABAC : Yes
    Format settings, Reference : 4 frames
    Codec ID : V_MPEG4/ISO/AVC
    Duration : 2 h 3 min
    Bit rate : 2 500 kb/s
    Width : 1 920 pixels
    Height : 796 pixels
    Display aspect ratio : 2.40:1
    Frame rate mode : Constant
    Frame rate : 23.976 (23976/1000) FPS
    Color space : YUV
    Chroma subsampling : 4:2:0
    Bit depth : 8 bits
    Scan type : Progressive
    Bits/(Pixel*Frame) : 0.068
    Stream size : 2.16 GiB (38%)
    Title : Ghostbusters.Afterlife.2021.1080p.WEBRip.x264.Thi. MST_©GOLD CUP™
    Writing library : x264 core 152 r2851M ba24899
    Language : English
    Default : Yes
    Forced : No

    Audio #1
    ID : 2
    Format : AAC LC
    Format/Info : Advanced Audio Codec Low Complexity
    Codec ID : A_AAC-2
    Duration : 2 h 3 min
    Bit rate : 224 kb/s
    Channel(s) : 6 channels
    Channel layout : C L R Ls Rs LFE
    Sampling rate : 48.0 kHz
    Frame rate : 46.875 FPS (1024 SPF)
    Compression mode : Lossy
    Delay relative to video : -43 ms
    Stream size : 199 MiB (3%)
    Title : En.AAC_224 kbs.6 channels
    Language : English
    Default : Yes
    Forced : No

    Audio #2
    ID : 3
    Format : AC-3
    Format/Info : Audio Coding 3
    Commercial name : Dolby Digital
    Codec ID : A_AC3
    Duration : 2 h 3 min
    Bit rate mode : Constant
    Bit rate : 192 kb/s
    Channel(s) : 2 channels
    Channel layout : L R
    Sampling rate : 48.0 kHz
    Frame rate : 31.250 FPS (1536 SPF)
    Compression mode : Lossy
    Delay relative to video : -43 ms
    Stream size : 170 MiB (3%)
    Title : Th.2.0.AC3.192k
    Language : Thai
    Service kind : Complete Main
    Default : Yes
    Forced : No

    Audio #3
    ID : 4
    Format : DTS
    Format/Info : Digital Theater Systems
    Codec ID : A_DTS
    Duration : 2 h 3 min
    Bit rate mode : Constant
    Bit rate : 3 646 kb/s
    Channel(s) : 6 channels
    Channel layout : C L R Ls Rs LFE
    Sampling rate : 44.1 kHz
    Frame rate : 43.066 FPS (1024 SPF)
    Bit depth : 16 bits
    Compression mode : Lossy
    Delay relative to video : -43 ms
    Stream size : 3.16 GiB (55%)
    Title : En.DTS.5.1_Sample Rate 44100
    Language : English
    Default : Yes
    Forced : No

    Text #1
    ID : 5
    Format : PGS
    Muxing mode : zlib
    Codec ID : S_HDMV/PGS
    Codec ID/Info : Picture based subtitle format used on BDs/HD-DVDs
    Duration : 2 h 2 min
    Bit rate : 24.6 kb/s
    Count of elements : 2528
    Stream size : 21.5 MiB (0%)
    Title : Th.3.100.90.White
    Language : Thai
    Default : Yes
    Forced : No

    Text #2
    ID : 6
    Format : PGS
    Muxing mode : zlib
    Codec ID : S_HDMV/PGS
    Codec ID/Info : Picture based subtitle format used on BDs/HD-DVDs
    Duration : 1 h 58 min
    Bit rate : 25.2 kb/s
    Count of elements : 2374
    Stream size : 21.4 MiB (0%)
    Title : EN.110.3.83.Yellow
    Language : English
    Default : No
    Forced : No





    Download:filecondo
    Ghostbusters.Afterlife(2021)โกสต์บัสเตอร์-_ปลุกพลังล่าท้าผี1080p.BluRay.H264.AAC_.mkv - 2.7 GB
    Ghostbusters.Afterlife.2021.1080p.WEBRip.x264.Thi. MST_GOLD CUP.mkv - 5.7 GB

    Download:cornfile
    Ghostbusters.Afterlife(2021)โกสต์บัสเตอร์-_ปลุกพลังล่าท้าผี1080p.BluRay.H264.AAC_.mkv - 2.7 GB
    Ghostbusters.Afterlife.2021.1080p.WEBRip.x264.Thi. MST_GOLD CUP.mkv - 5.7 GB

  2. The Following 7 Users Say Thank You to Duckload.us For This Useful Post:

    bigbang06 (01-28-2022), Jodz14 (01-28-2022), noi54 (01-28-2022), sasithep (01-29-2022), sawara (01-31-2022), Tellmon (02-24-2022), Wesker_TOT (01-29-2022)

  3. #2
    Senior Member
    สมัครเมื่อ
    Jul 2013
    โพสต์
    3,220
    Thanks
    0
    Thanked 0 Times in 0 Posts
    ขอบคุรครับ
    เสียงพูดไทยเบาไปหน่อยครับ
    แก้ไขครั้งล่าสุดโดย mirin99 : 01-29-2022 เมื่อ 07:41 AM

  4. #3
    Senior Member
    สมัครเมื่อ
    Dec 2013
    โพสต์
    3,648
    Thanks
    5,554
    Thanked 0 Times in 0 Posts
    ขอบคุณครับ...

  5. #4
    Senior Member
    สมัครเมื่อ
    Dec 2013
    โพสต์
    609
    Thanks
    554
    Thanked 0 Times in 0 Posts
    ขอบคุณครับบ

+ ตอบกลับกระทู้

ข้อมูลกระทู้

Users Browsing this Thread

ในขณะนี้มี 1 ท่านดูกระทู้อยู่. (0 สมาชิกและ 1 ผู้เยี่ยมชม)

     

กฎการโพสต์ข้อความ

  • ท่าน ไม่สามารถ ตั้งกระทู้ใหม่ได้
  • ท่าน ไม่สามารถ ตอบกระทู้ได้
  • ท่าน ไม่สามารถ แนบไฟล์ได้
  • ท่าน ไม่สามารถ แก้ไขข้อความโพสต์ได้
  • BB code สถานะ เปิด
  • Smilies สถานะ เปิด
  • [IMG] สถานะ เปิด
  • HTML สถานะ ปิด