เฟิงเถิง ทายาทของบริษัทยักษ์ใหญ่ มีน้องสาวชื่อเฟิงยู่ที่มีเลือดกรุ๊ปหายาก เขาจึงรับซานซานมาทำงานในบริษัทเนื่องจากเธอมีเลือดก รุ๊ปเดียวกับน้องสาวของเขา เรื่องราวยุ่งเหยิงเริ่มบังเกิดเมื่อเฟิงเถิงตั้งใจจ ะขุนซานซานให้อ้วน เพราะซานซานชอบกิน แต่ยิ่งเฟิงเถิงได้รู้จักซานซาน เขายิ่งได้รับรู้ว่าซานซานเป็นผู้หญิงน่ารักและใสซื่ อ ถึงแม้จะซุ่มซ่ามไปบ้าง แต่กว่าเขาจะรู้ตัวก็ได้ตกหลุมรักซานซานไปแล้ว








Video
ID : 1
Format : AVC
Format/Info : Advanced Video Codec
Format profile : [email protected]
Format settings : CABAC / 4 Ref Frames
Format settings, CABAC : Yes
Format settings, Reference : 4 frames
Codec ID : V_MPEG4/ISO/AVC
Duration : 45 min 49 s
Bit rate mode : Variable
Bit rate : 3 507 kb/s
Maximum bit rate : 20.0 Mb/s
Width : 1 920 pixels
Height : 1 080 pixels
Display aspect ratio : 16:9
Frame rate mode : Constant
Frame rate : 25.000 FPS
Color space : YUV
Chroma subsampling : 4:2:0
Bit depth : 8 bits
Scan type : Progressive
Bits/(Pixel*Frame) : 0.068
Stream size : 1.12 GiB (91%)
Writing library : x264 core 148 r2727 7d026e8
Encoding settings : cabac=1 / ref=4 / deblock=1:0:0 / analyse=0x3:0x111 / me=umh / subme=10 / psy=1 / psy_rd=1.00:0.00 / mixed_ref=1 / me_range=120 / chroma_me=1 / trellis=2 / 8x8dct=1 / cqm=0 / deadzone=21,11 / fast_pskip=1 / chroma_qp_offset=-2 / threads=8 / lookahead_threads=2 / sliced_threads=0 / nr=0 / decimate=1 / interlaced=0 / bluray_compat=0 / stitchable=1 / constrained_intra=0 / bframes=16 / b_pyramid=2 / b_adapt=2 / b_bias=0 / direct=3 / weightb=1 / open_gop=0 / weightp=2 / keyint=250 / keyint_min=126 / scenecut=0 / intra_refresh=0 / rc_lookahead=250 / rc=crf / mbtree=1 / crf=21.0 / qcomp=0.50 / qpmin=6 / qpmax=51 / qpstep=4 / vbv_maxrate=20000 / vbv_bufsize=25000 / crf_max=0.0 / nal_hrd=vbr / filler=0 / ip_ratio=1.40 / aq=1:0.80
Default : Yes
Forced : No

Audio #1
ID : 2
Format : AAC LC
Format/Info : Advanced Audio Codec Low Complexity
Codec ID : A_AAC-2
Duration : 45 min 48 s
Bit rate : 192 kb/s
Channel(s) : 2 channels
Channel layout : L R
Sampling rate : 48.0 kHz
Frame rate : 46.875 FPS (1024 SPF)
Compression mode : Lossy
Stream size : 63.2 MiB (5%)
Language : Thai
Default : Yes
Forced : No

Audio #2
ID : 3
Format : AAC LC SBR
Format/Info : Advanced Audio Codec Low Complexity with Spectral Band Replication
Commercial name : HE-AAC
Format settings : Explicit
Codec ID : A_AAC-2
Duration : 45 min 49 s
Bit rate : 128 kb/s
Channel(s) : 2 channels
Channel layout : L R
Sampling rate : 48.0 kHz
Frame rate : 23.438 FPS (2048 SPF)
Compression mode : Lossy
Stream size : 42.0 MiB (3%)
Title : Mandarin
Language : Chinese
Default : No
Forced : No

Text #1
ID : 4
Format : ASS
Codec ID : S_TEXT/ASS
Codec ID/Info : Advanced Sub Station Alpha
Duration : 41 min 59 s
Bit rate : 228 b/s
Count of elements : 936
Compression mode : Lossless
Stream size : 70.4 KiB (0%)
Title : Thai Spark (TV)
Language : Thai
Default : No
Forced : No

Text #2
ID : 5
Format : ASS
Codec ID : S_TEXT/ASS
Codec ID/Info : Advanced Sub Station Alpha
Duration : 41 min 59 s
Bit rate : 228 b/s
Count of elements : 936
Compression mode : Lossless
Stream size : 70.4 KiB (0%)
Title : Thai Spark (Pc)
Language : Thai
Default : Yes
Forced : No

Text #3
ID : 6
Format : UTF-8
Codec ID : S_TEXT/UTF8
Codec ID/Info : UTF-8 Plain Text
Duration : 41 min 59 s
Bit rate : 163 b/s
Count of elements : 936
Stream size : 50.4 KiB (0%)
Title : Thai Spark (Srt)
Language : Thai
Default : No
Forced : No



Boss.and.Me.S01E33.1080p.NF.WEB-DL.AAC2.0.x264-(Spark751).mkv
http://www.filecondo.com/dl.php?f=O475691NJoT9

Boss.and.Me.S01E32.1080p.NF.WEB-DL.AAC2.0.x264-(Spark751).mkv
http://www.filecondo.com/dl.php?f=a29a1e1NJoRg

Boss.and.Me.S01E31.1080p.NF.WEB-DL.AAC2.0.x264-(Spark751).mkv
http://www.filecondo.com/dl.php?f=3f52aa1NJoQj

Boss.and.Me.S01E30.1080p.NF.WEB-DL.AAC2.0.x264-(Spark751).mkv
http://www.filecondo.com/dl.php?f=F555381NJoPC

Boss.and.Me.S01E29.1080p.NF.WEB-DL.AAC2.0.x264-(Spark751).mkv
http://www.filecondo.com/dl.php?f=E608e41NJoMV

Boss.and.Me.S01E28.1080p.NF.WEB-DL.AAC2.0.x264-(Spark751).mkv
http://www.filecondo.com/dl.php?f=V55aec1NJoIB

Boss.and.Me.S01E27.1080p.NF.WEB-DL.AAC2.0.x264-(Spark751).mkv
http://www.filecondo.com/dl.php?f=G1ba421NJoI9

Boss.and.Me.S01E26.1080p.NF.WEB-DL.AAC2.0.x264-(Spark751).mkv
http://www.filecondo.com/dl.php?f=G21e0b1NJoH7

Boss.and.Me.S01E25.1080p.NF.WEB-DL.AAC2.0.x264-(Spark751).mkv
http://www.filecondo.com/dl.php?f=Ye812b1NJoGf

Boss.and.Me.S01E24.1080p.NF.WEB-DL.AAC2.0.x264-(Spark751).mkv
http://www.filecondo.com/dl.php?f=eec18f1NJoEH

Boss.and.Me.S01E23.1080p.NF.WEB-DL.AAC2.0.x264-(Spark751).mkv
http://www.filecondo.com/dl.php?f=ia97a81NJoDH

Boss.and.Me.S01E22.1080p.NF.WEB-DL.AAC2.0.x264-(Spark751).mkv
http://www.filecondo.com/dl.php?f=qad9d61NJoCK

Boss.and.Me.S01E21.1080p.NF.WEB-DL.AAC2.0.x264-(Spark751).mkv
http://www.filecondo.com/dl.php?f=qe11251NJoBM

Boss.and.Me.S01E20.1080p.NF.WEB-DL.AAC2.0.x264-(Spark751).mkv
http://www.filecondo.com/dl.php?f=J968ef1NJoAQ

Boss.and.Me.S01E19.1080p.NF.WEB-DL.AAC2.0.x264-(Spark751).mkv
http://www.filecondo.com/dl.php?f=r81a071NJozR

Boss.and.Me.S01E18.1080p.NF.WEB-DL.AAC2.0.x264-(Spark751).mkv
http://www.filecondo.com/dl.php?f=Ic72691NJoyV

Boss.and.Me.S01E17.1080p.NF.WEB-DL.AAC2.0.x264-(Spark751).mkv
http://www.filecondo.com/dl.php?f=g8eca61NJoxY

Boss.and.Me.S01E16.1080p.NF.WEB-DL.AAC2.0.x264-(Spark751).mkv
http://www.filecondo.com/dl.php?f=616cd71NJox2

Boss.and.Me.S01E15.1080p.NF.WEB-DL.AAC2.0.x264-(Spark751).mkv
http://www.filecondo.com/dl.php?f=7ed2691NJow5

Boss.and.Me.S01E14.1080p.NF.WEB-DL.AAC2.0.x264-(Spark751).mkv
http://www.filecondo.com/dl.php?f=f752831NJov5

Boss.and.Me.S01E13.1080p.NF.WEB-DL.AAC2.0.x264-(Spark751).mkv
http://www.filecondo.com/dl.php?f=ubb23f1NJotX

Boss.and.Me.S01E12.1080p.NF.WEB-DL.AAC2.0.x264-(Spark751).mkv
http://www.filecondo.com/dl.php?f=z843651NJoqg

Boss.and.Me.S01E11.1080p.NF.WEB-DL.AAC2.0.x264-(Spark751).mkv
http://www.filecondo.com/dl.php?f=Of8ab21NJopi

Boss.and.Me.S01E10.1080p.NF.WEB-DL.AAC2.0.x264-(Spark751).mkv
http://www.filecondo.com/dl.php?f=r2caa31NJoo8

Boss.and.Me.S01E09.1080p.NF.WEB-DL.AAC2.0.x264-(Spark751).mkv
http://www.filecondo.com/dl.php?f=Sfd08d1NJolk

Boss.and.Me.S01E08.1080p.NF.WEB-DL.AAC2.0.x264-(Spark751).mkv
http://www.filecondo.com/dl.php?f=U180851NJoko

Boss.and.Me.S01E07.1080p.NF.WEB-DL.AAC2.0.x264-(Spark751).mkv
http://www.filecondo.com/dl.php?f=Yc25dc1NJojs

Boss.and.Me.S01E06.1080p.NF.WEB-DL.AAC2.0.x264-(Spark751).mkv
http://www.filecondo.com/dl.php?f=N96eda1NJoiz

Boss.and.Me.S01E05.1080p.NF.WEB-DL.AAC2.0.x264-(Spark751).mkv
http://www.filecondo.com/dl.php?f=3ad93e1NJohA

Boss.and.Me.S01E04.1080p.NF.WEB-DL.AAC2.0.x264-(Spark751).mkv
http://www.filecondo.com/dl.php?f=Qf22511NJogB

Boss.and.Me.S01E03.1080p.NF.WEB-DL.AAC2.0.x264-(Spark751).mkv
http://www.filecondo.com/dl.php?f=E8f7bf1NJofE

Boss.and.Me.S01E02.1080p.NF.WEB-DL.AAC2.0.x264-(Spark751).mkv
http://www.filecondo.com/dl.php?f=G6b9951NJoeF

Boss.and.Me.S01E01.1080p.NF.WEB-DL.AAC2.0.x264-(Spark751).mkv
http://www.filecondo.com/dl.php?f=63c3b11NJodF