+ ͺѺз
ػšä 1 ֧ 2 ҡ 2
  1. #1
    Administrators ٻǹ Duckload.us
    Ѥ
    Dec 2010
    ʵ
    135,947
    Thanks
    7
    Thanked 140,740 Times in 61,769 Posts

    Thumbs up []-[* ͹ + ҾѴдѺ Master ç! *] Sonic the Hedgehog 2 (2022) : ⫹Ԥ δ͡ 2 @CtHts [ҡç 2.0 + §ѧ 2.0] [* 1080p WEBRip 硤سҾ٧! *]



    Sonic.the.Hedgehog.2.2022.1080p.WEBRip.x264
    § : ҡç + §ѧ

    Sonic the hedgehog 2 ѺáѺҢͧ¿Ңѭ㨼дѺš ҾѺüشѹաдѺ SONIC THE HEDGEHOG 2 ⫹Ԥ δ͡ 2

    ѧҡŧѡѡҹչ ⫹Ԥ ҡо٨ͧҤԧ ÷ͺʹ.ú͵Ԥ ѺҾѺѹԵ Ѥ ǡҡѺҤáվѧ㹡÷¸ ⫹ԤѺ ǡѹ͡Թҧͧš ͤá͹ѹеͧ͢ ҡҧͧѧ稢ͧ The Fast and the Furious Deadpool

    SONIC THE HEDGEHOG 2 ʴ ഹ, ູ 쵫 §ҡ⫹Ԥ, ䷡ , ҵҪ ͸, ʹ Ш ѺҾѺ Դ ź §ҡ Ѥ չ Ϳʫ §

    Format : Matroska
    Format version : Version 4
    File size : 4.94 GiB
    Duration : 2 h 1 min
    Overall bit rate : 5 823 kb/s
    Movie name : Sonic.the.Hedgehog.2.2022.1080p.WEBRip.x264.THR_Mr [email protected]

    Video
    ID : 1
    Format : AVC
    Format/Info : Advanced Video Codec
    Format profile : [email protected]
    Format settings : CABAC / 4 Ref Frames
    Format settings, CABAC : Yes
    Format settings, Reference : 4 frames
    Codec ID : V_MPEG4/ISO/AVC
    Duration : 2 h 1 min
    Bit rate : 5 117 kb/s
    Width : 1 920 pixels
    Height : 1 080 pixels
    Display aspect ratio : 16:9
    Frame rate mode : Constant
    Frame rate : 29.970 (30000/1001) FPS
    Color space : YUV
    Chroma subsampling : 4:2:0
    Bit depth : 8 bits
    Scan type : Progressive
    Bits/(Pixel*Frame) : 0.082
    Stream size : 4.34 GiB (88%)
    Title : Sonic.the.Hedgehog.2.2022.1080p.WEBRip.x264.THR_Mr [email protected]
    Language : English
    Default : Yes
    Forced : No

    Audio #1
    ID : 2
    Format : AC-3
    Format/Info : Audio Coding 3
    Commercial name : Dolby Digital
    Codec ID : A_AC3
    Duration : 2 h 1 min
    Bit rate mode : Constant
    Bit rate : 384 kb/s
    Channel(s) : 2 channels
    Channel layout : L R
    Sampling rate : 48.0 kHz
    Frame rate : 31.250 FPS (1536 SPF)
    Compression mode : Lossy
    Delay relative to video : -67 ms
    Stream size : 333 MiB (7%)
    Title : ThaiRong 2.0 @ 384 kb/s by Mr.Captain
    Language : Thai
    Service kind : Complete Main
    Default : Yes
    Forced : No

    Audio #2
    ID : 3
    Format : AAC LC
    Format/Info : Advanced Audio Codec Low Complexity
    Codec ID : A_AAC-2
    Duration : 2 h 1 min
    Bit rate : 320 kb/s
    Channel(s) : 2 channels
    Channel layout : L R
    Sampling rate : 48.0 kHz
    Frame rate : 46.875 FPS (1024 SPF)
    Compression mode : Lossy
    Delay relative to video : -67 ms
    Stream size : 278 MiB (5%)
    Title : English 2.0 @ 320 kb/s
    Language : English
    Default : No
    Forced : No




    Download:filecondo
    http://www.filecondo.com/dl.php?f=re8ec71NMJRY
    Download:cornfile
    https://www.cornfile.com/3w40p0at3ods

  2. The Following User Says Thank You to Duckload.us For This Useful Post:

    Wesker_TOT (05-08-2022)

  3. #2
    Senior Member
    Ѥ
    Dec 2013
    ʵ
    3,657
    Thanks
    5,563
    Thanked 0 Times in 0 Posts
    ͺسѺ...

+ ͺѺз

šз

Users Browsing this Thread

㹢й 1 ҹ١з. (0 Ҫԡ 1 )

     

ʵͤ

  • ҹ ö 駡з
  • ҹ ö ͺз
  • ҹ ö
  • ҹ ö 䢢ͤʵ