+ ตอบกลับกระทู้
สรุปผลการค้นหา 1 ถึง 3 จากทั้งหมด 3
  1. #1
    Administrators รูปส่วนตัว Duckload.us
    สมัครเมื่อ
    Dec 2010
    โพสต์
    135,947
    Thanks
    7
    Thanked 140,740 Times in 61,769 Posts

    Thumbs up Spiral : From the Book of Saw (2021) เกม-ลอก อำมหิต พากย์:ไทย-อังกฤษ][SUB:ไทย-อังกฤษ][1080p]



    เรื่องย่อ : Spiral: From The Book Of Saw คือส่วนผสมที่ลงตัวระหว่างความเป็นจักรวาล SAW และหนังสยองขวัญเจนฯใหม่ ทันสมัยด้วยเรื่องราวของ นักสืบเอเซเกล ซีค แบงก์ส (รับบทโดย คริส ร็อก) เขามักจะถูกเปรียบเทียบฝีมือกับ อดีตตำรวจฝีมือระดับฉมัง มาร์คัส แบงก์ส (รับบทโดย ซามูเอล แอล. แจ็กสัน) พ่อของเขา ด้วยความที่ต้องการพิสูจน์ตัวเอง เขาจึงต้องไขคดีฆาตกรรมต่อเนื่องสุดโหด ร่วมกับคู่หูหน้าใหม่อย่าง นักสืบวิลเลียม เชงก์ (รับบทโดย แม็กซ์ มิงเกลลา) แต่เรื่องราวกลับเลวร้ายขึ้น เมื่อนักสืบแบงกส์พบว่า เหยื่อของคดีฆาตกรรมทั้งหมดเป็นตำรวจ และรูปแบบการฆ่าก็สยดสยองเกินมนุษย์ ด้วยการเลียนแบบฆาตกรในตำนานอย่าง จิกซอว์ และยิ่งพวกเขาถลำลึกไปกับคดีมากเท่าไหร่ ก็กลับพบกว่าตัวเองกำลังเดินสู่กับดักแสนวิปริตอย่าง เลี่ยงไม่ได้

    Format : Matroska
    Format version : Version 4
    File size : 5.54 GiB
    Duration : 1 h 33 min
    Overall bit rate : 8 525 kb/s
    Movie name : Spiral - From the Book of Saw 2021
    Encoded date : UTC 2022-05-08 08:19:43
    Writing application : mkvmerge v67.0.0 ('Under Stars') 64-bit
    Writing library : libebml v1.4.2 + libmatroska v1.6.4

    Video
    ID : 1
    Format : AVC
    Format/Info : Advanced Video Codec
    Format profile : [email protected]
    Format settings : CABAC / 4 Ref Frames
    Format settings, CABAC : Yes
    Format settings, Reference frames : 4 frames
    Format settings, GOP : M=3, N=24
    Codec ID : V_MPEG4/ISO/AVC
    Duration : 1 h 33 min
    Bit rate : 8 044 kb/s
    Width : 1 920 pixels
    Height : 804 pixels
    Display aspect ratio : 2.40:1
    Frame rate mode : Constant
    Frame rate : 23.976 (24000/1001) FPS
    Color space : YUV
    Chroma subsampling : 4:2:0
    Bit depth : 8 bits
    Scan type : Progressive
    Bits/(Pixel*Frame) : 0.217
    Stream size : 5.23 GiB (94%)
    Language : English
    Default : Yes
    Forced : No
    Color range : Limited
    Color primaries : BT.709
    Transfer characteristics : BT.709
    Matrix coefficients : BT.709

    Audio #1
    ID : 2
    Format : AAC LC
    Format/Info : Advanced Audio Codec Low Complexity
    Codec ID : A_AAC-2
    Duration : 1 h 33 min
    Bit rate : 192 kb/s
    Channel(s) : 6 channels
    Channel layout : C L R Ls Rs LFE
    Sampling rate : 48.0 kHz
    Frame rate : 46.875 FPS (1024 SPF)
    Compression mode : Lossy
    Delay relative to video : -21 ms
    Stream size : 128 MiB (2%)
    Language : Thai
    Default : Yes
    Forced : Yes

    Audio #2
    ID : 3
    Format : AAC LC
    Format/Info : Advanced Audio Codec Low Complexity
    Codec ID : A_AAC-2
    Duration : 1 h 33 min
    Bit rate : 192 kb/s
    Channel(s) : 6 channels
    Channel layout : C L R Ls Rs LFE
    Sampling rate : 48.0 kHz
    Frame rate : 46.875 FPS (1024 SPF)
    Compression mode : Lossy
    Delay relative to video : -21 ms
    Stream size : 128 MiB (2%)
    Language : English
    Default : Yes
    Forced : No

    Text #1
    ID : 4
    Format : PGS
    Muxing mode : zlib
    Codec ID : S_HDMV/PGS
    Codec ID/Info : Picture based subtitle format used on BDs/HD-DVDs
    Duration : 1 h 25 min
    Bit rate : 39.4 kb/s
    Count of elements : 2620
    Stream size : 24.1 MiB (0%)
    Language : Thai
    Default : Yes
    Forced : Yes

    Text #2
    ID : 5
    Format : PGS
    Muxing mode : zlib
    Codec ID : S_HDMV/PGS
    Codec ID/Info : Picture based subtitle format used on BDs/HD-DVDs
    Duration : 1 h 25 min
    Bit rate : 39.4 kb/s
    Count of elements : 2620
    Stream size : 24.1 MiB (0%)
    Language : Thai
    Default : Yes
    Forced : No

    Text #3
    ID : 6
    Format : PGS
    Muxing mode : zlib
    Codec ID : S_HDMV/PGS
    Codec ID/Info : Picture based subtitle format used on BDs/HD-DVDs
    Duration : 1 h 26 min
    Bit rate : 51.4 kb/s
    Count of elements : 2686
    Stream size : 31.7 MiB (1%)
    Language : English
    Default : Yes
    Forced : No

    Text #4
    ID : 7
    Format : PGS
    Muxing mode : zlib
    Codec ID : S_HDMV/PGS
    Codec ID/Info : Picture based subtitle format used on BDs/HD-DVDs
    Duration : 1 h 26 min
    Bit rate : 51.4 kb/s
    Count of elements : 2686
    Stream size : 31.7 MiB (1%)
    Language : English
    Default : Yes
    Forced : No





    Download:filecondo
    http://www.filecondo.com/dl.php?f=8421521NO1pc
    Download:cornfile
    https://www.cornfile.com/tgc7pa7ga1ts

  2. The Following 3 Users Say Thank You to Duckload.us For This Useful Post:

    Jodz14 (05-11-2022), noi54 (05-12-2022), sommitr (05-11-2022)

  3. #2
    Senior Member
    สมัครเมื่อ
    Jul 2013
    โพสต์
    3,239
    Thanks
    0
    Thanked 0 Times in 0 Posts
    ขอบคุณครับ

  4. #3
    Member
    สมัครเมื่อ
    Jul 2013
    โพสต์
    92
    Thanks
    0
    Thanked 0 Times in 0 Posts
    ขอบคุณครับ

+ ตอบกลับกระทู้

ข้อมูลกระทู้

Users Browsing this Thread

ในขณะนี้มี 1 ท่านดูกระทู้อยู่. (0 สมาชิกและ 1 ผู้เยี่ยมชม)

     

กฎการโพสต์ข้อความ

  • ท่าน ไม่สามารถ ตั้งกระทู้ใหม่ได้
  • ท่าน ไม่สามารถ ตอบกระทู้ได้
  • ท่าน ไม่สามารถ แนบไฟล์ได้
  • ท่าน ไม่สามารถ แก้ไขข้อความโพสต์ได้
  • BB code สถานะ เปิด
  • Smilies สถานะ เปิด
  • [IMG] สถานะ เปิด
  • HTML สถานะ ปิด