+ ตอบกลับกระทู้
สรุปผลการค้นหา 1 ถึง 2 จากทั้งหมด 2
  1. #1
    Administrators รูปส่วนตัว Duckload.us
    สมัครเมื่อ
    Dec 2010
    โพสต์
    135,947
    Thanks
    7
    Thanked 140,740 Times in 61,769 Posts

    Thumbs up [ฝรั่ง]-9 Bullets (2022) -WEB-DL.EAC-3.1080p. [Modified]-[พากย์อังกฤษ 5.1 บรรยายไทย (แปล -Z&Z-)-อังกฤษ]



    เรื่องราวของอดีตนักเต้นล้อเลียนที่ผันตัวมาเป็นนักเ ขียน (ลีนา เฮดดี้) ค้นพบโอกาสครั้งที่สองในชีวิตและการไถ่ถอน เมื่อเธอเสี่ยงทุกอย่างเพื่อช่วยเหลือเพื่อนบ้านตัวน ้อยของเธอหลังจากที่เขาเห็นการฆาตกรรมของพ่อแม่ ตอนนี้กำลังหนีจากหัวหน้าแก๊งอาชญากร (แซม เวิร์ธธิงตัน) ซึ่งบังเอิญเป็นอดีตกาลของเธอ เธอจึงพยายามอย่างยิ่งยวดเพื่อให้เด็กชายปลอดภัย

    Format : Matroska
    Format version : Version 4
    File size : 4.18 GiB
    Duration : 1 h 36 min
    Overall bit rate : 6 198 kb/s
    Encoded date : UTC 2022-05-07 12:08:22
    Writing application : mkvmerge v55.0.0 ('Waiting For Space') 64-bit
    Writing library : libebml v1.4.2 + libmatroska v1.6.4

    Video
    ID : 1
    Format : AVC
    Format/Info : Advanced Video Codec
    Format profile : [email protected]
    Format settings : CABAC / 3 Ref Frames
    Format settings, CABAC : Yes
    Format settings, Reference : 3 frames
    Codec ID : V_MPEG4/ISO/AVC
    Duration : 1 h 36 min
    Bit rate : 5 793 kb/s
    Width : 1 920 pixels
    Height : 802 pixels
    Display aspect ratio : 2.40:1
    Frame rate mode : Constant
    Frame rate : 23.976 (24000/1001) FPS
    Color space : YUV
    Chroma subsampling : 4:2:0
    Bit depth : 8 bits
    Scan type : Progressive
    Bits/(Pixel*Frame) : 0.157
    Stream size : 3.91 GiB (93%)
    Language : English
    Default : Yes
    Forced : No
    Color range : Limited
    Color primaries : BT.709
    Transfer characteristics : BT.709
    Matrix coefficients : BT.709

    Audio
    ID : 2
    Format : E-AC-3
    Format/Info : Enhanced AC-3
    Commercial name : Dolby Digital Plus
    Codec ID : A_EAC3
    Duration : 1 h 36 min
    Bit rate mode : Constant
    Bit rate : 384 kb/s
    Channel(s) : 6 channels
    Channel layout : L R C LFE Ls Rs
    Sampling rate : 48.0 kHz
    Frame rate : 31.250 FPS (1536 SPF)
    Compression mode : Lossy
    Stream size : 265 MiB (6%)
    Title : E-AC3 English
    Language : English
    Service kind : Complete Main
    Default : Yes
    Forced : No

    Text #1
    ID : 3
    Format : VobSub
    Muxing mode : zlib
    Codec ID : S_VOBSUB
    Codec ID/Info : Picture based subtitle format used on DVDs
    Duration : 1 h 27 min
    Bit rate : 10.7 kb/s
    Count of elements : 1230
    Stream size : 6.75 MiB (0%)
    Title : Sub Thai 1080p
    Language : Thai
    Default : No
    Forced : No

    Text #2
    ID : 4
    Format : UTF-8
    Codec ID : S_TEXT/UTF8
    Codec ID/Info : UTF-8 Plain Text
    Duration : 1 h 27 min
    Bit rate : 109 b/s
    Count of elements : 1230
    Stream size : 70.5 KiB (0%)
    Title : Sub Thai SRT
    Language : Thai
    Default : No
    Forced : No

    Text #3
    ID : 5
    Format : PGS
    Muxing mode : zlib
    Codec ID : S_HDMV/PGS
    Codec ID/Info : Picture based subtitle format used on BDs/HD-DVDs
    Duration : 1 h 27 min
    Bit rate : 32.8 kb/s
    Count of elements : 2460
    Stream size : 20.6 MiB (0%)
    Title : Sub Thai PGS
    Language : Thai
    Default : Yes
    Forced : No

    Text #4
    ID : 6
    Format : UTF-8
    Codec ID : S_TEXT/UTF8
    Codec ID/Info : UTF-8 Plain Text
    Duration : 1 h 36 min
    Bit rate : 65 b/s
    Count of elements : 1520
    Stream size : 46.2 KiB (0%)
    Title : Sub English SRT
    Language : English
    Default : No
    Forced : No






    บรรยายไทยโดย -Z&Z-

    Download:filecondo
    http://www.filecondo.com/dl.php?f=scc5f71NO21Z
    Download:cornfile
    https://www.cornfile.com/oz40ynb01caz

  2. #2
    Senior Member
    สมัครเมื่อ
    Jul 2013
    โพสต์
    3,239
    Thanks
    0
    Thanked 0 Times in 0 Posts
    ขอบคุรครับ

+ ตอบกลับกระทู้

ข้อมูลกระทู้

Users Browsing this Thread

ในขณะนี้มี 1 ท่านดูกระทู้อยู่. (0 สมาชิกและ 1 ผู้เยี่ยมชม)

     

กฎการโพสต์ข้อความ

  • ท่าน ไม่สามารถ ตั้งกระทู้ใหม่ได้
  • ท่าน ไม่สามารถ ตอบกระทู้ได้
  • ท่าน ไม่สามารถ แนบไฟล์ได้
  • ท่าน ไม่สามารถ แก้ไขข้อความโพสต์ได้
  • BB code สถานะ เปิด
  • Smilies สถานะ เปิด
  • [IMG] สถานะ เปิด
  • HTML สถานะ ปิด