+ ตอบกลับกระทู้
สรุปผลการค้นหา 1 ถึง 3 จากทั้งหมด 3
  1. #1
    Administrators รูปส่วนตัว Duckload.us
    สมัครเมื่อ
    Dec 2010
    โพสต์
    135,947
    Thanks
    7
    Thanked 140,740 Times in 61,769 Posts

    Thumbs up [ฝรั่ง] The Lost City (2022) ผจญภัยนครสาบสูญ [พากย์:อังกฤษ/ไทย โรง][SUB:อังกฤษ][1080p]




    ลอเร็ตตา เสจ (แซนดรา บุลล็อก) คือนักเขียนผู้เก่งกาจ แต่รักสันโดษ เธอได้เขียนหนังสือเกี่ยวกับสถานที่แปลกประหลาดในนิย ายรักผจญภัยยอดนิยมของเธอ โดยมี อลัน (แชนนิง เททัม) มาเป็นนายแบบหน้าปกสุดหล่อ และทุ่มเทชีวิตเต็มที่ในการปรากฏตัวเป็น “แดช” ฮีโร่จากนิยาย ลอเร็ตตาและอลันออกทัวร์โปรโมตหนังสือเล่มใหม่ร่วมกั น และพวกเขาทั้งคู่ถูกลักพาตัวโดยมหาเศรษฐีสุดประหลาด (แดเนียล แรดคลิฟฟ์) ผู้ซึ่งหวังว่าเธอจะสามารถนำเขาไปสู่การพบสมบัติในเม ืองโบราณที่สาบสูญในนิยายเรื่องล่าสุดของเธอ อลันต้องการพิสูจน์ว่าเขาสามารถเป็นฮีโร่ได้ในชีวิตจ ริงและไม่ใช่แค่ในหนังสือเท่านั้น เขาจึงออกเดินทางไปเพื่อช่วยเหลือเธอ เมื่อเข้าสู่การผจญภัยในป่าใหญ่ ชายหญิงต่างขั้วจะต้องทำงานร่วมกันเพื่อเอาชีวิตรอดจ ากสถานการณ์ต่างๆ และค้นหาสมบัติโบราณก่อนที่มันจะสูญหายไปตลอดกาล!

    Format : Matroska
    Format version : Version 4
    File size : 4.86 GiB
    Duration : 1 h 51 min
    Overall bit rate : 6 227 kb/s
    Movie name : The.Lost.City.2022.1080p.WEB-DL.DDP5.1.H264_©GOLD CUP™_WWW.TT-TORRENT.COM

    Video
    ID : 1
    Format : AVC
    Format/Info : Advanced Video Codec
    Format profile : [email protected]
    Format settings : CABAC / 1 Ref Frames
    Format settings, CABAC : Yes
    Format settings, Reference : 1 frame
    Format settings, GOP : M=1, N=25
    Codec ID : V_MPEG4/ISO/AVC
    Duration : 1 h 51 min
    Bit rate mode : Constant
    Bit rate : 5 367 kb/s
    Width : 1 920 pixels
    Height : 1 080 pixels
    Display aspect ratio : 16:9
    Frame rate mode : Constant
    Frame rate : 23.976 (24000/1001) FPS
    Color space : YUV
    Chroma subsampling : 4:2:0
    Bit depth : 8 bits
    Scan type : Progressive
    Bits/(Pixel*Frame) : 0.108
    Stream size : 4.19 GiB (86%)
    Title : The.Lost.City.2022.1080p.WEB-DL.DDP5.1.H264_©GOLD CUP™
    Language : English
    Default : Yes
    Forced : No

    Audio #1
    ID : 2
    Format : E-AC-3
    Format/Info : Enhanced AC-3
    Commercial name : Dolby Digital Plus
    Codec ID : A_EAC3
    Duration : 1 h 51 min
    Bit rate mode : Constant
    Bit rate : 640 kb/s
    Channel(s) : 6 channels
    Channel layout : L R C LFE Ls Rs
    Sampling rate : 48.0 kHz
    Frame rate : 31.250 FPS (1536 SPF)
    Compression mode : Lossy
    Stream size : 512 MiB (10%)
    Title : En.5.1.AC3olby Digital Plus.640kbs
    Language : English
    Service kind : Complete Main
    Default : Yes
    Forced : No

    Audio #2
    ID : 3
    Format : AC-3
    Format/Info : Audio Coding 3
    Commercial name : Dolby Digital
    Codec ID : A_AC3
    Duration : 1 h 51 min
    Bit rate mode : Constant
    Bit rate : 192 kb/s
    Channel(s) : 2 channels
    Channel layout : L R
    Sampling rate : 48.0 kHz
    Frame rate : 31.250 FPS (1536 SPF)
    Compression mode : Lossy
    Stream size : 154 MiB (3%)
    Title : THR.AC3
    Language : Thai
    Service kind : Complete Main
    Default : Yes
    Forced : No

    Text
    ID : 4
    Format : PGS
    Muxing mode : zlib
    Codec ID : S_HDMV/PGS
    Codec ID/Info : Picture based subtitle format used on BDs/HD-DVDs
    Duration : 1 h 45 min
    Bit rate : 53.5 kb/s
    Count of elements : 3566
    Stream size : 40.4 MiB (1%)
    Title : EN.110.3.83.Yellow
    Language : English
    Default : No
    Forced : No





    Download:filecondo
    The.Lost.City.2022.1080p.AMZN.WEB-DL.DDP5.1.H264.mkv
    http://www.filecondo.com/dl.php?f=Ee9a021NOlQs
    The.Lost.City.2022.1080p.WEB-DL.DDP5.1.H264.Thr_GOLD_CUP.mkv
    http://www.filecondo.com/dl.php?f=j046011NOlFT

    Download:cornfile
    The.Lost.City.2022.1080p.AMZN.WEB-DL.DDP5.1.H264.mkv - 5.7 GB
    The.Lost.City.2022.1080p.WEB-DL.DDP5.1.H264.Thr_GOLD CUP.mkv - 4.9 GB

  2. The Following 4 Users Say Thank You to Duckload.us For This Useful Post:

    NaiWan (05-11-2022), noi54 (05-12-2022), sommitr (05-11-2022), Wesker_TOT (05-11-2022)

  3. #2
    Senior Member
    สมัครเมื่อ
    Jul 2013
    โพสต์
    3,239
    Thanks
    0
    Thanked 0 Times in 0 Posts
    ขอบคุรครับ

  4. #3
    Senior Member
    สมัครเมื่อ
    Dec 2013
    โพสต์
    3,657
    Thanks
    5,563
    Thanked 0 Times in 0 Posts
    ขอบคุณครับ...

+ ตอบกลับกระทู้

ข้อมูลกระทู้

Users Browsing this Thread

ในขณะนี้มี 1 ท่านดูกระทู้อยู่. (0 สมาชิกและ 1 ผู้เยี่ยมชม)

     

กฎการโพสต์ข้อความ

  • ท่าน ไม่สามารถ ตั้งกระทู้ใหม่ได้
  • ท่าน ไม่สามารถ ตอบกระทู้ได้
  • ท่าน ไม่สามารถ แนบไฟล์ได้
  • ท่าน ไม่สามารถ แก้ไขข้อความโพสต์ได้
  • BB code สถานะ เปิด
  • Smilies สถานะ เปิด
  • [IMG] สถานะ เปิด
  • HTML สถานะ ปิด