+ ตอบกลับกระทู้
สรุปผลการค้นหา 1 ถึง 3 จากทั้งหมด 3
  1. #1
    Administrators รูปส่วนตัว Duckload.us
    สมัครเมื่อ
    Dec 2010
    โพสต์
    135,947
    Thanks
    7
    Thanked 140,740 Times in 61,769 Posts

    Thumbs up [จีน] The Legend of The Condor Heroe-The Dragon Tamer (2021) มังกรหยก ศึกชิงคัมภีร์เก้าอิม [พากย์:จีน/ไทย มาสเตอร์][SUB:อังกฤษ][1080p]



    ก๋วยเจ็งชายหนุ่มในทะเลทรายติดตามอาจารย์หกประหลาดแห ่งเจียงหนานไปฝึกวิชาที่เจียงหนาน ได้พบกับอึ่งโย้งบุตรสาวของอึ้งเอี๊ยซือ ทั้งสองคนถูกดึงเข้าไปพัวพันกับแผนการแย่งชิงคัมภีร์ นพเก้า!!

    Format : Matroska
    Format version : Version 4
    File size : 4.73 GiB
    Duration : 1 h 34 min
    Overall bit rate : 7 159 kb/s
    Movie name : The Legend of The Condor Heroes: The Dragon Tamer (2021) มังกรหยก ศึกชิงคัมภีร์เก้าอิม_©GOLD CUP™_WWW.TT-TORRENT.COM
    Video
    ID : 1
    Format : AVC
    Format/Info : Advanced Video Codec
    Format profile : [email protected]
    Format settings : CABAC / 1 Ref Frames
    Format settings, CABAC : Yes
    Format settings, Reference : 1 frame
    Format settings, GOP : M=1, N=25
    Codec ID : V_MPEG4/ISO/AVC
    Duration : 1 h 34 min
    Bit rate mode : Constant
    Bit rate : 6 834 kb/s
    Width : 1 920 pixels
    Height : 802 pixels
    Display aspect ratio : 2.40:1
    Frame rate mode : Constant
    Frame rate : 25.000 FPS
    Color space : YUV
    Chroma subsampling : 4:2:0
    Bit depth : 8 bits
    Scan type : Progressive
    Bits/(Pixel*Frame) : 0.178
    Stream size : 4.51 GiB (95%)
    Title : The Legend of The Condor Heroes: The Dragon Tamer (2021) มังกรหยก ศึกชิงคัมภีร์เก้าอิม_©GOLD CUP™
    Language : Chinese
    Default : Yes
    Forced : No

    Audio #1
    ID : 2
    Format : AAC LC
    Format/Info : Advanced Audio Codec Low Complexity
    Codec ID : A_AAC-2
    Duration : 1 h 34 min
    Bit rate : 178 kb/s
    Channel(s) : 2 channels
    Channel layout : L R
    Sampling rate : 44.1 kHz
    Frame rate : 43.066 FPS (1024 SPF)
    Compression mode : Lossy
    Stream size : 120 MiB (2%)
    Title : Th.AAC.2.0_192 kbs
    Language : Thai
    Default : Yes
    Forced : No

    Audio #2
    ID : 3
    Format : AAC LC
    Format/Info : Advanced Audio Codec Low Complexity
    Codec ID : A_AAC-2
    Duration : 1 h 34 min
    Bit rate : 128 kb/s
    Channel(s) : 2 channels
    Channel layout : L R
    Sampling rate : 48.0 kHz
    Frame rate : 46.875 FPS (1024 SPF)
    Compression mode : Lossy
    Stream size : 86.5 MiB (2%)
    Title : Chi.AAC.2.0_128 kbs
    Language : Chinese
    Default : Yes
    Forced : No

    Text
    ID : 4
    Format : PGS
    Muxing mode : zlib
    Codec ID : S_HDMV/PGS
    Codec ID/Info : Picture based subtitle format used on BDs/HD-DVDs
    Duration : 1 h 30 min
    Bit rate : 36.2 kb/s
    Count of elements : 2194
    Stream size : 23.5 MiB (0%)
    Title : EN.110.3.83.Yellow
    Language : English
    Default : No
    Forced : No





    Download:filecondo
    http://www.filecondo.com/dl.php?f=31aa031NOlJS
    Download:cornfile
    https://www.cornfile.com/v1h972rjj9oh

  2. The Following 6 Users Say Thank You to Duckload.us For This Useful Post:

    apichartdear (05-11-2022), azygous (05-14-2022), dulobobo (05-10-2022), Jodz14 (05-11-2022), noi54 (05-12-2022), sommitr (05-11-2022)

  3. #2
    Senior Member
    สมัครเมื่อ
    Aug 2015
    โพสต์
    103
    Thanks
    0
    Thanked 0 Times in 0 Posts
    ขอบคุณค่ะ

  4. #3
    Senior Member
    สมัครเมื่อ
    Jul 2012
    โพสต์
    7,941
    Thanks
    0
    Thanked 0 Times in 0 Posts
    ขอบคุณมากจ้า

+ ตอบกลับกระทู้

ข้อมูลกระทู้

Users Browsing this Thread

ในขณะนี้มี 1 ท่านดูกระทู้อยู่. (0 สมาชิกและ 1 ผู้เยี่ยมชม)

     

กฎการโพสต์ข้อความ

  • ท่าน ไม่สามารถ ตั้งกระทู้ใหม่ได้
  • ท่าน ไม่สามารถ ตอบกระทู้ได้
  • ท่าน ไม่สามารถ แนบไฟล์ได้
  • ท่าน ไม่สามารถ แก้ไขข้อความโพสต์ได้
  • BB code สถานะ เปิด
  • Smilies สถานะ เปิด
  • [IMG] สถานะ เปิด
  • HTML สถานะ ปิด