+ ตอบกลับกระทู้
สรุปผลการค้นหา 1 ถึง 2 จากทั้งหมด 2
  1. #1
    Administrators รูปส่วนตัว Duckload.us
    สมัครเมื่อ
    Dec 2010
    โพสต์
    135,947
    Thanks
    7
    Thanked 140,740 Times in 61,769 Posts

    Thumbs up [ฝรั่ง] FANTASTIC BEASTS THE SECRETS OF DUMBLEDORE (2022) [พากย์:อังกฤษ/ไทย โรง][SUB:อังกฤษ/เกาหลีฝัง][1080p] สัตว์มหัศจรรย์ ความลับของดัมเบิลดอร์



    เมื่อศาสตราจารย์ อัลบัส ดัมเบิลดอร์ (จู๊ด ลอว์) รู้ว่าพ่อมดศาสตร์มืด เกลเลิร์ต กรินเดลวัลด์ (แมดส์ มิคเคลสัน) เริ่มเดินแผนการหวังปกครองโลกเวทมนตร์ด้วยตัวเอง แต่เขาก็ไม่สามารถหยุดอดีตเพื่อนรักได้ด้วยตัวคนเดีย ว เขาจึงมอบหมายให้ศิษย์รักนักสัตว์วิเศษวิทยา นิวท์ สคามันเดอร์ (เอ็ดดี้ เรดเมย์น) นำทัพเหล่าพ่อมด-แม่มด รวมถึงมักเกิลนักทำเบเกอรี่ผู้กล้าหาญเผชิญหน้ากับภา รกิจเสี่ยงอันตราย ที่พวกเขาต้องต่อสู้กับสัตว์วิเศษทั้งเก่าและใหม่ รวมถึงกองทัพผู้ติดตาม กรินเดลวัลด์ ในสถานการณ์ที่ต้องเดิมพันสูงเช่นนี้ ดัมเบิลดอร์ จะสามารถดึงตัวเพื่อนรักของเขากลับมาได้หรือไม่

    Format : Matroska
    Format version : Version 4
    File size : 4.67 GiB
    Duration : 2 h 22 min
    Overall bit rate : 4 692 kb/s
    Movie name : Fantastic.Beasts.The.Secrets.of.Dumbledore.2022.10 80p.HDRip.x264.AAC2.0.Thr_©GOLD CUP™_WWW.TT-TORRENT.COM

    Video
    ID : 1
    Format : AVC
    Format/Info : Advanced Video Codec
    Format profile : [email protected]
    Format settings : CABAC / 1 Ref Frames
    Format settings, CABAC : Yes
    Format settings, Reference : 1 frame
    Format settings, GOP : M=1, N=25
    Codec ID : V_MPEG4/ISO/AVC
    Duration : 2 h 22 min
    Bit rate mode : Constant
    Bit rate : 4 167 kb/s
    Width : 1 920 pixels
    Height : 1 080 pixels
    Display aspect ratio : 16:9
    Frame rate mode : Constant
    Frame rate : 23.976 (24000/1001) FPS
    Color space : YUV
    Chroma subsampling : 4:2:0
    Bit depth : 8 bits
    Scan type : Progressive
    Bits/(Pixel*Frame) : 0.084
    Stream size : 4.15 GiB (89%)
    Title : Fantastic.Beasts.The.Secrets.of.Dumbledore.2022.10 80p.HDRip.x264.AAC2.0.Thr_©GOLD CUP™
    Language : English
    Default : Yes
    Forced : No

    Audio #1
    ID : 2
    Format : AAC LC
    Format/Info : Advanced Audio Codec Low Complexity
    Codec ID : A_AAC-2
    Duration : 2 h 22 min
    Bit rate : 320 kb/s
    Channel(s) : 2 channels
    Channel layout : L R
    Sampling rate : 48.0 kHz
    Frame rate : 46.875 FPS (1024 SPF)
    Compression mode : Lossy
    Stream size : 326 MiB (7%)
    Title : En.2.0.AAC.320k
    Language : English
    Default : Yes
    Forced : No

    Audio #2
    ID : 3
    Format : AC-3
    Format/Info : Audio Coding 3
    Commercial name : Dolby Digital
    Codec ID : A_AC3
    Duration : 2 h 22 min
    Bit rate mode : Constant
    Bit rate : 192 kb/s
    Channel(s) : 2 channels
    Channel layout : L R
    Sampling rate : 48.0 kHz
    Frame rate : 31.250 FPS (1536 SPF)
    Compression mode : Lossy
    Stream size : 196 MiB (4%)
    Title : Thr.2.0.AC3.192k
    Language : Thai
    Service kind : Complete Main
    Default : Yes
    Forced : No

    Text
    ID : 4
    Format : PGS
    Muxing mode : zlib
    Codec ID : S_HDMV/PGS
    Codec ID/Info : Picture based subtitle format used on BDs/HD-DVDs
    Duration : 2 h 12 min
    Bit rate : 23.8 kb/s
    Count of elements : 2412
    Stream size : 22.5 MiB (0%)
    Title : EN.110.0.83.Yellow
    Language : English
    Default : No
    Forced : No





    Download:filecondo
    http://www.filecondo.com/dl.php?f=H7bfda1NOJjH
    Download:cornfile
    https://www.cornfile.com/zylqr4hsnu74

  2. The Following User Says Thank You to Duckload.us For This Useful Post:

    Wesker_TOT (05-12-2022)

  3. #2
    Senior Member
    สมัครเมื่อ
    Dec 2013
    โพสต์
    3,657
    Thanks
    5,563
    Thanked 0 Times in 0 Posts
    ขอบคุณครับ...

+ ตอบกลับกระทู้

ข้อมูลกระทู้

Users Browsing this Thread

ในขณะนี้มี 1 ท่านดูกระทู้อยู่. (0 สมาชิกและ 1 ผู้เยี่ยมชม)

     

กฎการโพสต์ข้อความ

  • ท่าน ไม่สามารถ ตั้งกระทู้ใหม่ได้
  • ท่าน ไม่สามารถ ตอบกระทู้ได้
  • ท่าน ไม่สามารถ แนบไฟล์ได้
  • ท่าน ไม่สามารถ แก้ไขข้อความโพสต์ได้
  • BB code สถานะ เปิด
  • Smilies สถานะ เปิด
  • [IMG] สถานะ เปิด
  • HTML สถานะ ปิด