+ ตอบกลับกระทู้
สรุปผลการค้นหา 1 ถึง 3 จากทั้งหมด 3
  1. #1
    Administrators รูปส่วนตัว Duckload.us
    สมัครเมื่อ
    Dec 2010
    โพสต์
    135,947
    Thanks
    7
    Thanked 140,740 Times in 61,769 Posts

    Thumbs up [ฝรั่ง]-The Lost City (2022) ผจญภัยนครสาบสูญ [เสียง: อังกฤษ 5.1- ไทยโรง][บรรยาย: ไทย PGS/VobSub/SRT-อังกฤษ SRT] บรรยายไทย อนันต์ โพธิสูง-WEB-DL.H.264.1080p. [From HD-TV]-[พากย์ไทย บรรยายไทย]




    The Lost City ลอเร็ตตา เสจ (แซนดรา บุลล็อก) คือนักเขียนผู้เก่งกาจ แต่รักสันโดษ เธอได้เขียนหนังสือเกี่ยวกับสถานที่แปลกประหลาดในนิย ายรักผจญภัยยอดนิยมของเธอ โดยมี อลัน (แชนนิง เททัม) มาเป็นนายแบบหน้าปกสุดหล่อ และทุ่มเทชีวิตเต็มที่ในการปรากฏตัวเป็น “แดช” ฮีโร่จากนิยาย ลอเร็ตตาและอลันออกทัวร์โปรโมตหนังสือเล่มใหม่ร่วมกั น และพวกเขาทั้งคู่ถูกลักพาตัวโดยมหาเศรษฐีสุดประหลาด (แดเนียล แรดคลิฟฟ์) ผู้ซึ่งหวังว่าเธอจะสามารถนำเขาไปสู่การพบสมบัติในเม ืองโบราณที่สาบสูญในนิยายเรื่องล่าสุดของเธอ อลันต้องการพิสูจน์ว่าเขาสามารถเป็นฮีโร่ได้ในชีวิตจ ริงและไม่ใช่แค่ในหนังสือเท่านั้น เขาจึงออกเดินทางไปเพื่อช่วยเหลือเธอ เมื่อเข้าสู่การผจญภัยในป่าใหญ่ ชายหญิงต่างขั้วจะต้องทำงานร่วมกันเพื่อเอาชีวิตรอดจ ากสถานการณ์ต่างๆ และค้นหาสมบัติโบราณก่อนที่มันจะสูญหายไปตลอดกาล!

    Video
    ID : 1
    Format : AVC
    Format/Info : Advanced Video Codec
    Format profile : [email protected]
    Format settings, CABAC : Yes
    Format settings, RefFrames : 4 frames
    Codec ID : V_MPEG4/ISO/AVC
    Duration : 1 h 51 min
    Bit rate mode : Constant
    Bit rate : 6 486 kb/s
    Nominal bit rate : 10 000 kb/s
    Width : 1 920 pixels
    Height : 1 080 pixels
    Display aspect ratio : 16:9
    Frame rate mode : Constant
    Frame rate : 23.976 (24000/1001) FPS
    Color space : YUV
    Chroma subsampling : 4:2:0
    Bit depth : 8 bits
    Scan type : Progressive
    Bits/(Pixel*Frame) : 0.130
    Stream size : 5.07 GiB (88%)
    Language : English
    Default : Yes
    Forced : No
    Color range : Limited
    Color primaries : BT.709
    Transfer characteristics : BT.709
    Matrix coefficients : BT.709

    Audio #1
    ID : 2
    Format : E-AC-3
    Format/Info : Enhanced Audio Coding 3
    Format settings, Endianness : Big
    Codec ID : A_EAC3
    Duration : 1 h 51 min
    Bit rate mode : Constant
    Bit rate : 640 kb/s
    Channel(s) : 6 channels
    Channel positions : Front: L C R, Side: L R, LFE
    Sampling rate : 48.0 kHz
    Frame rate : 187.500 FPS (256 SPF)
    Compression mode : Lossy
    Stream size : 512 MiB (9%)
    Title : [English-AC-3]
    Language : English
    Service kind : Complete Main
    Default : Yes
    Forced : No

    Audio #2
    ID : 3
    Format : AC-3
    Format/Info : Audio Coding 3
    Format settings, Endianness : Big
    Codec ID : A_AC3
    Duration : 1 h 51 min
    Bit rate mode : Constant
    Bit rate : 192 kb/s
    Channel(s) : 2 channels
    Channel positions : Front: L R
    Sampling rate : 48.0 kHz
    Frame rate : 31.250 FPS (1536 SPF)
    Bit depth : 16 bits
    Compression mode : Lossy
    Stream size : 154 MiB (3%)
    Title : [ThaiRong-AC-3]
    Language : Thai
    Service kind : Complete Main
    Default : No
    Forced : No

    Text #1
    ID : 4
    Format : PGS
    Muxing mode : zlib
    Codec ID : S_HDMV/PGS
    Codec ID/Info : Picture based subtitle format used on BDs/HD-DVDs
    Duration : 1 h 45 min
    Bit rate : 69.3 kb/s
    Count of elements : 3368
    Stream size : 52.2 MiB (1%)
    Title : [Thai PGS]
    Language : Thai
    Default : Yes
    Forced : No

    Text #2
    ID : 5
    Format : PGS
    Muxing mode : zlib
    Codec ID : S_HDMV/PGS
    Codec ID/Info : Picture based subtitle format used on BDs/HD-DVDs
    Duration : 1 h 45 min
    Bit rate : 69.3 kb/s
    Count of elements : 3368
    Stream size : 52.2 MiB (1%)
    Title : [Thai PGS Yellow]
    Language : Thai
    Default : No
    Forced : No

    Text #3
    ID : 6
    Format : VobSub
    Muxing mode : zlib
    Codec ID : S_VOBSUB
    Codec ID/Info : Picture based subtitle format used on DVDs
    Duration : 1 h 45 min
    Bit rate : 19.2 kb/s
    Count of elements : 1684
    Stream size : 14.5 MiB (0%)
    Title : [Thai VobSub]
    Language : Thai
    Default : No
    Forced : No

    Text #4
    ID : 7
    Format : VobSub
    Muxing mode : zlib
    Codec ID : S_VOBSUB
    Codec ID/Info : Picture based subtitle format used on DVDs
    Duration : 1 h 45 min
    Bit rate : 19.2 kb/s
    Count of elements : 1684
    Stream size : 14.5 MiB (0%)
    Title : [Thai VobSub Yellow]
    Language : Thai
    Default : No
    Forced : No

    Text #5
    ID : 8
    Format : UTF-8
    Codec ID : S_TEXT/UTF8
    Codec ID/Info : UTF-8 Plain Text
    Duration : 1 h 45 min
    Bit rate : 168 b/s
    Count of elements : 1684
    Stream size : 130 KiB (0%)
    Title : SRT
    Language : Thai
    Default : No
    Forced : No

    Text #6
    ID : 9
    Format : UTF-8
    Codec ID : S_TEXT/UTF8
    Codec ID/Info : UTF-8 Plain Text
    Duration : 1 h 45 min
    Bit rate : 85 b/s
    Count of elements : 1908
    Stream size : 65.6 KiB (0%)
    Title : SDH
    Language : English
    Default : No
    Forced : No

    Text #7
    ID : 10
    Format : UTF-8
    Codec ID : S_TEXT/UTF8
    Codec ID/Info : UTF-8 Plain Text
    Duration : 1 h 45 min
    Bit rate : 80 b/s
    Count of elements : 1781
    Stream size : 61.7 KiB (0%)
    Language : English
    Default : No
    Forced : No







    Download:filecondo
    http://www.filecondo.com/dl.php?f=x281511NP3Af
    Download:cornfile
    https://www.cornfile.com/kgv6w44oxnfx

  2. The Following 2 Users Say Thank You to Duckload.us For This Useful Post:

    jackjangri (05-23-2022), kappa (05-20-2022)

  3. #2
    Senior Member
    สมัครเมื่อ
    Oct 2013
    โพสต์
    2,168
    Thanks
    0
    Thanked 0 Times in 0 Posts
    ขอบคุณครับ

  4. #3
    I'm donate !
    สมัครเมื่อ
    Jun 2011
    โพสต์
    426
    Thanks
    580
    Thanked 40 Times in 29 Posts
    ขอบคุณครับ

+ ตอบกลับกระทู้

ข้อมูลกระทู้

Users Browsing this Thread

ในขณะนี้มี 1 ท่านดูกระทู้อยู่. (0 สมาชิกและ 1 ผู้เยี่ยมชม)

     

กฎการโพสต์ข้อความ

  • ท่าน ไม่สามารถ ตั้งกระทู้ใหม่ได้
  • ท่าน ไม่สามารถ ตอบกระทู้ได้
  • ท่าน ไม่สามารถ แนบไฟล์ได้
  • ท่าน ไม่สามารถ แก้ไขข้อความโพสต์ได้
  • BB code สถานะ เปิด
  • Smilies สถานะ เปิด
  • [IMG] สถานะ เปิด
  • HTML สถานะ ปิด