+ ตอบกลับกระทู้
สรุปผลการค้นหา 1 ถึง 2 จากทั้งหมด 2
  1. #1
    Administrators รูปส่วนตัว Duckload.us
    สมัครเมื่อ
    Dec 2010
    โพสต์
    135,947
    Thanks
    7
    Thanked 140,740 Times in 61,769 Posts

    Thumbs up [จีน]- Kunlun Shrine (2022) คนขุดสุสาน ตอน วังเทพคุนหลุน-WEB-DL.H.264.1080p. [Rip]-[Soundtrack บรรยายไทย (Master)]



    นักแสดง: หวังหลงเจิ้ง หวังจืออวิ่น หานเย่โจว หลิวปัว หม่าอี้ หยางซิ่ง
    เรื่องราวของหูปาอี เชอร์รี่หยาง หวังพั่งจื่อ เพื่อที่จะไขปริศนาตวามลับของมุกมู่เฉิน ได้ร่วมมือกับพ่อค้าสมบัติโบราณชาวฮ่องกงที่ต้องการต ามหาศพคริสตัลน้ำแข็งพันปี พวกเขาร่วมเดินทางไปด้วยกัน เส้นทางนี้พวกเขาจะต้องเจอกับเรื่องราวลี้ลับและผจญภ ัยกับอะไรอีกบ้าง โปรดติดตาม...

    Format : MPEG-4
    Format profile : Base Media
    Codec ID : isom (isom/iso2/avc1/mp41)
    File size : 4.07 GiB
    Duration : 1 h 32 min
    Overall bit rate mode : Variable
    Overall bit rate : 6 310 kb/s
    Writing application : Lavf59.6.100

    Video
    ID : 1
    Format : AVC
    Format/Info : Advanced Video Codec
    Format profile : [email protected]
    Format settings : CABAC / 1 Ref Frames
    Format settings, CABAC : Yes
    Format settings, Reference frames : 1 frame
    Codec ID : avc1
    Codec ID/Info : Advanced Video Coding
    Duration : 1 h 32 min
    Bit rate mode : Variable
    Bit rate : 6 174 kb/s
    Maximum bit rate : 18.4 Mb/s
    Width : 2 576 pixels
    Height : 1 080 pixels
    Display aspect ratio : 2.40:1
    Original display aspect ratio : 2.40:1
    Frame rate mode : Constant
    Frame rate : 24.000 FPS
    Color space : YUV
    Chroma subsampling : 4:2:0
    Bit depth : 8 bits
    Scan type : Progressive
    Bits/(Pixel*Frame) : 0.092
    Stream size : 3.98 GiB (98%)
    Writing library : ptw-1.0.116 rcm-vary vbl-0 vwk
    Color range : Limited
    Color primaries : BT.709
    Transfer characteristics : BT.709
    Matrix coefficients : BT.709
    Codec configuration box : avcC

    Audio
    ID : 2
    Format : AAC LC
    Format/Info : Advanced Audio Codec Low Complexity
    Codec ID : mp4a-40-2
    Duration : 1 h 32 min
    Source duration : 1 h 32 min
    Bit rate mode : Constant
    Bit rate : 132 kb/s
    Channel(s) : 2 channels
    Channel layout : L R
    Sampling rate : 48.0 kHz
    Frame rate : 46.875 FPS (1024 SPF)
    Compression mode : Lossy
    Stream size : 85.7 MiB (2%)
    Source stream size : 85.7 MiB (2%)
    Default : Yes
    Alternate group : 1
    mdhd_Duration : 5542102





    Download:filecondo
    http://www.filecondo.com/dl.php?f=r459fc1NP3G8
    Download:cornfile
    https://www.cornfile.com/fl8kqcabsjzu

  2. The Following User Says Thank You to Duckload.us For This Useful Post:

    apichartdear (05-13-2022)

  3. #2
    Senior Member
    สมัครเมื่อ
    Oct 2013
    โพสต์
    2,168
    Thanks
    0
    Thanked 0 Times in 0 Posts
    ขอบคุณครับ

+ ตอบกลับกระทู้

ข้อมูลกระทู้

Users Browsing this Thread

ในขณะนี้มี 1 ท่านดูกระทู้อยู่. (0 สมาชิกและ 1 ผู้เยี่ยมชม)

     

กฎการโพสต์ข้อความ

  • ท่าน ไม่สามารถ ตั้งกระทู้ใหม่ได้
  • ท่าน ไม่สามารถ ตอบกระทู้ได้
  • ท่าน ไม่สามารถ แนบไฟล์ได้
  • ท่าน ไม่สามารถ แก้ไขข้อความโพสต์ได้
  • BB code สถานะ เปิด
  • Smilies สถานะ เปิด
  • [IMG] สถานะ เปิด
  • HTML สถานะ ปิด