เป็นหนึ่งในผู้กำกับที่น่าจับตามองทีเดียวสำหรับ Robert Eggers ที่ประสบความสำเร็จเป็นอย่างมากกับผลงานหนังอินดี้สย องขวัญอย่าง The Witch และ The Lighthouse ซึ่งล่าสุดเขาก็ได้เปิดตัวหนังเรื่องใหม่อย่าง The Northman ออกมาแล้วที่มาพร้อมกับสเกลงานสร้างที่ใหญ่ที่สุดเท่ าที่เขาเคยทำมาก็เป็นได้

โดย The Northman จะเล่าเรื่องราวการล้างแค้นของ Amleth เจ้าชายไวกิ้งที่พ่อของเขาได้ถูกศัตรูสังหารไปต่อหน้ าต่อไป พร้อมๆ กับการที่แม่ของเขาได้ถูกลักพาตัวไปนั้นเอง

โดยตัวหนังจะได้ทาง Alexander Skarsgå rd มานำแสดงพร้อมได้นักแสดงชื่อดังอย่าง Nicole Kidman และ Ethan Hawk มาร่วมแสดงด้วย พร้อมกับดาราคู่บุญของ Robert Eggers อย่าง Anya-Taylor Joy และ Willem Dafoe ซึ่งตัวหนังจะเป็นผลงานการกำกับของ Robert Eggers จากบทที่เขาเขียนร่วมกับ Sjó n นักแต่งนิยายชื่อดังขาวไอซ์แลนด์

General
Unique ID : 31299252460470996716487651707890810873 (0x178C044A0F3041F7AF5604DECF21BFF9)
Complete name : F:The.Northman.2022.1080p.WEB.H264.EN.SUB-TH.Google.kiatplk.mkv
Format : Matroska
Format version : Version 4
File size : 7.05 GiB
Duration : 2 h 17 min
Overall bit rate : 7 364 kb/s
Movie name : The.Northman.2022.1080p.WEB.H264.EN.SUB-TH.Google.kiatplk
Encoded date : UTC 2022-05-12 23:37:14
Writing application : mkvmerge v64.0.0 ('Willows') 64-bit
Writing library : libebml v1.4.2 + libmatroska v1.6.4

Video
ID : 1
Format : AVC
Format/Info : Advanced Video Codec
Format profile : [email protected]
Format settings : CABAC / 4 Ref Frames
Format settings, CABAC : Yes
Format settings, Reference fra : 4 frames
Codec ID : V_MPEG4/ISO/AVC
Duration : 2 h 16 min
Bit rate : 6 583 kb/s
Width : 1 918 pixels
Height : 956 pixels
Display aspect ratio : 2.006
Frame rate mode : Constant
Frame rate : 23.976 (24000/1001) FPS
Color space : YUV
Chroma subsampling : 4:2:0
Bit depth : 8 bits
Scan type : Progressive
Bits/(Pixel*Frame) : 0.150
Stream size : 6.30 GiB (89%)
Default : Yes
Forced : No
Color range : Limited
Color primaries : BT.709
Transfer characteristics : BT.709
Matrix coefficients : BT.709

Audio
ID : 2
Format : E-AC-3 JOC
Format/Info : Enhanced AC-3 with Joint Object Coding
Commercial name : Dolby Digital Plus with Dolby Atmos
Codec ID : A_EAC3
Duration : 2 h 17 min
Bit rate mode : Constant
Bit rate : 768 kb/s
Channel(s) : 6 channels
Channel layout : L R C LFE Ls Rs
Sampling rate : 48.0 kHz
Frame rate : 31.250 FPS (1536 SPF)
Compression mode : Lossy
Stream size : 753 MiB (10%)
Language : English
Service kind : Complete Main
Default : Yes
Forced : No
Complexity index : 16
Number of dynamic objects : 15
Bed channel count : 1 channel
Bed channel configuration : LFE

Text #1
ID : 3
Format : UTF-8
Codec ID : S_TEXT/UTF8
Codec ID/Info : UTF-8 Plain Text
Duration : 2 h 7 min
Bit rate : 26 b/s
Count of elements : 979
Stream size : 25.0 KiB (0%)
Language : English
Default : Yes
Forced : No

Text #2
ID : 4
Format : UTF-8
Codec ID : S_TEXT/UTF8
Codec ID/Info : UTF-8 Plain Text
Duration : 2 h 7 min
Bit rate : 68 b/s
Count of elements : 948
Stream size : 64.0 KiB (0%)
Language : Thai
Default : Yes
Forced : No

Text #3
ID : 5
Format : PGS
Muxing mode : zlib
Codec ID : S_HDMV/PGS
Codec ID/Info : Picture based subtitle format used on BDs/HD-DVDs
Duration : 2 h 7 min
Bit rate : 20.1 kb/s
Count of elements : 1896
Stream size : 18.4 MiB (0%)
Title : Thai1080p.Angsana [ yellow ]
Language : Thai
Default : Yes
Forced : No

Text #4
ID : 6
Format : PGS
Muxing mode : zlib
Codec ID : S_HDMV/PGS
Codec ID/Info : Picture based subtitle format used on BDs/HD-DVDs
Duration : 2 h 7 min
Bit rate : 20.1 kb/s
Count of elements : 1896
Stream size : 18.4 MiB (0%)
Title : Thai1080p.Angsana
Language : Thai
Default : Yes
Forced : No





Download:filecondo
http://www.filecondo.com/dl.php?f=W24c6b1NPsTg
Download:cornfile
https://www.cornfile.com/hmdpkbtrx42r