Quote:
เรื่องย่อ
ณ ชายหาดเมืองเวนิซ หนุ่มตุ้ยนุ้ยจากตะวันตกกลางนาม เจบี (แจ็ค แบล็ค) ผูกมิตรกับ เคจี (ไคล์ กาสส์) จอมเฉื่อยร่างอ้วนเจ้าของถิ่น และตั้งวงร็อคชื่อ Tenacious D ขึ้น แต่การเป็นร็อคสตาร์ผู้ยิ่งใหญ่ไม่ใช่เรื่องง่าย พวกเขาจึงวางแผนขโมยปิคกีตาร์วิเศษที่ถูกเก็บรักษาไว ้ในพิพิธภัณฑ์ร็อคแอนด์โรลล์ซึ่งตั้งอยู่ไกลออกไป 300 ไมล์ นี่คือเรื่องราวมิตรภาพระหว่างเจบีและเคจีที่ และการเดินทางตามหาปิควิเศษที่จะเปลี่ยนประวัติศาสตร ์ร็อคไปตลอดกาล



General
Complete name : F:/Movies/TENACIOUS D IN THE PICK OF DESTINY (2006) ???????????????????????????.1080p.web.h264 @bURIN .mkv
Format : Matroska
Format version : Version 4
File size : 5.76 GiB
Duration : 1 h 34 min
Overall bit rate mode : Variable
Overall bit rate : 8 758 kb/s
Movie name : TENACIOUS D IN THE PICK OF DESTINY (2006) ???????????????????????????.1080p.web.h264 @bURIN
Encoded date : UTC 2022-05-07 10:59:03
Writing application : mkvmerge v56.0.0 ('Strasbourg / St. Denis') 32-bit
Writing library : libebml v1.4.2 + libmatroska v1.6.4

Video
ID : 1
Format : AVC
Format/Info : Advanced Video Codec
Format profile : [email protected]
Format settings : CABAC / 4 Ref Frames
Format settings, CABAC : Yes
Format settings, Reference frames : 4 frames
Codec ID : V_MPEG4/ISO/AVC
Duration : 1 h 34 min
Bit rate mode : Variable
Bit rate : 8 250 kb/s
Maximum bit rate : 12.4 Mb/s
Width : 1 920 pixels
Height : 1 080 pixels
Display aspect ratio : 16:9
Frame rate mode : Constant
Frame rate : 23.976 (24000/1001) FPS
Color space : YUV
Chroma subsampling : 4:2:0
Bit depth : 8 bits
Scan type : Progressive
Bits/(Pixel*Frame) : 0.166
Stream size : 5.42 GiB (94%)
Writing library : x264 core 157 r2965 861cec4
Encoding settings : cabac=1 / ref=4 / deblock=1:0:0 / analyse=0x3:0x113 / me=hex / subme=7 / psy=1 / psy_rd=1.00:0.00 / mixed_ref=1 / me_range=16 / chroma_me=1 / trellis=1 / 8x8dct=1 / cqm=0 / deadzone=21,11 / fast_pskip=1 / chroma_qp_offset=-2 / threads=34 / lookahead_threads=5 / sliced_threads=0 / nr=0 / decimate=1 / interlaced=0 / bluray_compat=0 / constrained_intra=0 / bframes=3 / b_pyramid=2 / b_adapt=1 / b_bias=0 / direct=1 / weightb=1 / open_gop=0 / weightp=2 / keyint=96 / keyint_min=96 / scenecut=40 / intra_refresh=0 / rc_lookahead=40 / rc=2pass / mbtree=1 / bitrate=8250 / ratetol=1.0 / qcomp=0.60 / qpmin=0 / qpmax=69 / qpstep=4 / cplxblur=20.0 / qblur=0.5 / vbv_maxrate=12375 / vbv_bufsize=6187 / nal_hrd=vbr / filler=0 / ip_ratio=1.40 / aq=1:1.00
Default : Yes
Forced : No
Color range : Limited
Color primaries : BT.709
Transfer characteristics : BT.709
Matrix coefficients : BT.709

Audio #1
ID : 2
Format : AC-3
Format/Info : Audio Coding 3
Commercial name : Dolby Digital
Codec ID : A_AC3
Duration : 1 h 34 min
Bit rate mode : Constant
Bit rate : 384 kb/s
Channel(s) : 6 channels
Channel layout : L R C LFE Ls Rs
Sampling rate : 48.0 kHz
Frame rate : 31.250 FPS (1536 SPF)
Compression mode : Lossy
Stream size : 258 MiB (4%)
Title : ?????? AC-3
Language : English
Service kind : Complete Main
Default : No
Forced : No

Audio #2
ID : 6
Format : AAC LC
Format/Info : Advanced Audio Codec Low Complexity
Codec ID : A_AAC-2
Duration : 1 h 34 min
Bit rate : 129 kb/s
Channel(s) : 2 channels
Channel layout : L R
Sampling rate : 48.0 kHz
Frame rate : 46.875 FPS (1024 SPF)
Compression mode : Lossy
Stream size : 87.1 MiB (1%)
Title : ??? AAC
Language : Thai
Default : Yes
Forced : Yes

Text #1
ID : 3
Format : UTF-8
Codec ID : S_TEXT/UTF8
Codec ID/Info : UTF-8 Plain Text
Duration : 1 h 34 min
Bit rate : 65 b/s
Count of elements : 1693
Stream size : 44.9 KiB (0%)
Title : English (SDH)
Language : English
Default : No
Forced : No

Text #2
ID : 4
Format : UTF-8
Codec ID : S_TEXT/UTF8
Codec ID/Info : UTF-8 Plain Text
Duration : 1 h 33 min
Bit rate : 65 b/s
Count of elements : 1456
Stream size : 44.9 KiB (0%)
Title : Spanish
Language : Spanish
Default : No
Forced : No

Text #3
ID : 5
Format : UTF-8
Codec ID : S_TEXT/UTF8
Codec ID/Info : UTF-8 Plain Text
Duration : 1 h 33 min
Bit rate : 60 b/s
Count of elements : 1438
Stream size : 41.4 KiB (0%)
Title : Portuguese
Language : Portuguese
Default : No
Forced : No

https://www.cornfile.com/rcz10kzp5avf