+ ตอบกลับกระทู้
สรุปผลการค้นหา 1 ถึง 4 จากทั้งหมด 4
  1. #1
    Administrators รูปส่วนตัว Duckload.us
    สมัครเมื่อ
    Dec 2010
    โพสต์
    135,947
    Thanks
    7
    Thanked 140,740 Times in 61,769 Posts

    Thumbs up [ฝรั่ง]-The Northman (2022) เดอะ นอร์ทแมน-WEB-DL.H.264.1080p. [Modified]-[Soundtrack บรรยายไทย - อนันต์ โพธิสูง]




    เป็นหนึ่งในผู้กำกับที่น่าจับตามองทีเดียวสำหรับ Robert Eggers ที่ประสบความสำเร็จเป็นอย่างมากกับผลงานหนังอินดี้สย องขวัญอย่าง The Witch และ The Lighthouse ซึ่งล่าสุดเขาก็ได้เปิดตัวหนังเรื่องใหม่อย่าง The Northman ออกมาแล้วที่มาพร้อมกับสเกลงานสร้างที่ใหญ่ที่สุดเท่ าที่เขาเคยทำมาก็เป็นได้

    โดย The Northman จะเล่าเรื่องราวการล้างแค้นของ Amleth เจ้าชายไวกิ้งที่พ่อของเขาได้ถูกศัตรูสังหารไปต่อหน้ าต่อไป พร้อมๆ กับการที่แม่ของเขาได้ถูกลักพาตัวไปนั้นเอง

    โดยตัวหนังจะได้ทาง Alexander Skarsgå rd มานำแสดงพร้อมได้นักแสดงชื่อดังอย่าง Nicole Kidman และ Ethan Hawk มาร่วมแสดงด้วย พร้อมกับดาราคู่บุญของ Robert Eggers อย่าง Anya-Taylor Joy และ Willem Dafoe ซึ่งตัวหนังจะเป็นผลงานการกำกับของ Robert Eggers จากบทที่เขาเขียนร่วมกับ Sjó n นักแต่งนิยายชื่อดังขาวไอซ์แลนด์

    Format : Matroska
    Format version : Version 4
    File size : 3.99 GiB
    Duration : 2 h 17 min
    Overall bit rate : 4 156 kb/s
    Movie name : The.Northman.2022.1080p.WEBRip.x264 @bURIN
    Encoded date : UTC 2022-05-13 11:05:13
    Writing application : mkvmerge v56.0.0 ('Strasbourg / St. Denis') 32-bit
    Writing library : libebml v1.4.2 + libmatroska v1.6.4

    Video
    ID : 1
    Format : AVC
    Format/Info : Advanced Video Codec
    Format profile : [email protected]
    Format settings : CABAC / 4 Ref Frames
    Format settings, CABAC : Yes
    Format settings, Reference frames : 4 frames
    Codec ID : V_MPEG4/ISO/AVC
    Duration : 2 h 17 min
    Bit rate : 2 500 kb/s
    Width : 1 920 pixels
    Height : 960 pixels
    Display aspect ratio : 2.000
    Frame rate mode : Constant
    Frame rate : 23.976 (23976/1000) FPS
    Color space : YUV
    Chroma subsampling : 4:2:0
    Bit depth : 8 bits
    Scan type : Progressive
    Bits/(Pixel*Frame) : 0.057
    Stream size : 2.40 GiB (60%)
    Writing library : x264 core 152 r2851M ba24899
    Encoding settings : cabac=1 / ref=4 / deblock=1:-1:-1 / analyse=0x3:0x113 / me=umh / subme=9 / psy=1 / psy_rd=1.00:0.15 / mixed_ref=1 / me_range=24 / chroma_me=1 / trellis=2 / 8x8dct=1 / cqm=0 / deadzone=21,11 / fast_pskip=1 / chroma_qp_offset=-3 / threads=16 / lookahead_threads=4 / sliced_threads=0 / nr=0 / decimate=1 / interlaced=0 / bluray_compat=0 / constrained_intra=0 / bframes=3 / b_pyramid=2 / b_adapt=2 / b_bias=0 / direct=3 / weightb=1 / open_gop=0 / weightp=2 / keyint=250 / keyint_min=25 / scenecut=40 / intra_refresh=0 / rc_lookahead=50 / rc=2pass / mbtree=1 / bitrate=2500 / ratetol=1.0 / qcomp=0.60 / qpmin=0 / qpmax=69 / qpstep=4 / cplxblur=20.0 / qblur=0.5 / vbv_maxrate=31250 / vbv_bufsize=31250 / nal_hrd=none / filler=0 / ip_ratio=1.40 / aq=3:1.00
    Default : Yes
    Forced : No

    Audio #1
    ID : 2
    Format : AAC LC
    Format/Info : Advanced Audio Codec Low Complexity
    Codec ID : A_AAC-2
    Duration : 2 h 17 min
    Bit rate : 224 kb/s
    Channel(s) : 6 channels
    Channel layout : C L R Ls Rs LFE
    Sampling rate : 48.0 kHz
    Frame rate : 46.875 FPS (1024 SPF)
    Compression mode : Lossy
    Delay relative to video : -43 ms
    Stream size : 220 MiB (5%)
    Title : อังกฤษ AAC
    Language : English
    Default : Yes
    Forced : No

    Audio #2
    ID : 6
    Format : DTS
    Format/Info : Digital Theater Systems
    Codec ID : A_DTS
    Duration : 2 h 17 min
    Bit rate mode : Constant
    Bit rate : 1 413 kb/s
    Channel(s) : 6 channels
    Channel layout : C L R Ls Rs LFE
    Sampling rate : 48.0 kHz
    Frame rate : 93.750 FPS (512 SPF)
    Bit depth : 16 bits
    Compression mode : Lossy
    Delay relative to video : -43 ms
    Stream size : 1.35 GiB (34%)
    Title : อังกฤษ DTS
    Language : English
    Default : No
    Forced : No

    Text #1
    ID : 3
    Format : UTF-8
    Codec ID : S_TEXT/UTF8
    Codec ID/Info : UTF-8 Plain Text
    Duration : 1 h 39 min
    Bit rate : 1 b/s
    Count of elements : 33
    Stream size : 1.10 KiB (0%)
    Title : อังกฤษ SRT
    Language : English
    Default : No
    Forced : No

    Text #2
    ID : 4
    Format : UTF-8
    Codec ID : S_TEXT/UTF8
    Codec ID/Info : UTF-8 Plain Text
    Duration : 2 h 8 min
    Bit rate : 67 b/s
    Count of elements : 978
    Stream size : 63.5 KiB (0%)
    Title : ไทย SRT
    Language : Thai
    Default : No
    Forced : No

    Text #3
    ID : 5
    Format : PGS
    Muxing mode : zlib
    Codec ID : S_HDMV/PGS
    Codec ID/Info : Picture based subtitle format used on BDs/HD-DVDs
    Duration : 2 h 8 min
    Bit rate : 30.4 kb/s
    Count of elements : 1956
    Stream size : 27.9 MiB (1%)
    Title : ไทยเหลือง PGS
    Language : Thai
    Default : No
    Forced : No

    Text #4
    ID : 7
    Format : PGS
    Muxing mode : zlib
    Codec ID : S_HDMV/PGS
    Codec ID/Info : Picture based subtitle format used on BDs/HD-DVDs
    Duration : 2 h 8 min
    Bit rate : 18.2 kb/s
    Count of elements : 1956
    Stream size : 16.7 MiB (0%)
    Title : ไทย PGS
    Language : Thai
    Default : Yes
    Forced : No





    Download:filecondo
    The.Northman.2022.1080p.WEBRip.x264.bURIN_.mkv
    http://www.filecondo.com/dl.php?f=5bdb8f1NPtFz
    The.Northman.2022.1080p.10bit.AMZN.WEB-DL.60FPS.x265.HEVC.mkv
    http://www.filecondo.com/dl.php?f=v18bc21NPPYI
    The_Northman_(2022).mkv
    http://www.filecondo.com/dl.php?f=qf88f11NPTJT

    Download:cornfile
    https://www.cornfile.com/0hdv6cp8gt2e
    The Northman (2022).mkv - 4.3 GB
    The.Northman.2022.1080p.10bit.AMZN.WEB-DL.60FPS.x265.HEVC.mkv - 4.0 GB
    The.Northman.2022.WebDL.mkv - 2.1 GB
    [email protected] - 9.0 GB

  2. The Following 3 Users Say Thank You to Duckload.us For This Useful Post:

    jackjangri (05-22-2022), kappa (05-20-2022), noi54 (05-14-2022)

  3. #2
    Junior Member
    สมัครเมื่อ
    Mar 2012
    โพสต์
    9
    Thanks
    4
    Thanked 0 Times in 0 Posts
    ไฟล์ยังไม่พร้อมสำหรับการดาวโหลด ระบบกำลังประมวลผลไฟล์

  4. #3
    Administrators รูปส่วนตัว Duckload.us
    สมัครเมื่อ
    Dec 2010
    โพสต์
    135,947
    Thanks
    7
    Thanked 140,740 Times in 61,769 Posts
    อ้างอิง โพสต์ต้นฉบับโดยคุณ aalif123 ดูโพสต์
    ไฟล์ยังไม่พร้อมสำหรับการดาวโหลด ระบบกำลังประมวลผลไฟล์
    เรียนแจ้ง ตอนนี้โหลดได้แล้วครับ

  5. #4
    I'm donate !
    สมัครเมื่อ
    Jun 2011
    โพสต์
    426
    Thanks
    580
    Thanked 40 Times in 29 Posts
    ขอบคุณครับ

+ ตอบกลับกระทู้

ข้อมูลกระทู้

Users Browsing this Thread

ในขณะนี้มี 1 ท่านดูกระทู้อยู่. (0 สมาชิกและ 1 ผู้เยี่ยมชม)

     

กฎการโพสต์ข้อความ

  • ท่าน ไม่สามารถ ตั้งกระทู้ใหม่ได้
  • ท่าน ไม่สามารถ ตอบกระทู้ได้
  • ท่าน ไม่สามารถ แนบไฟล์ได้
  • ท่าน ไม่สามารถ แก้ไขข้อความโพสต์ได้
  • BB code สถานะ เปิด
  • Smilies สถานะ เปิด
  • [IMG] สถานะ เปิด
  • HTML สถานะ ปิด