+ ตอบกลับกระทู้
สรุปผลการค้นหา 1 ถึง 2 จากทั้งหมด 2
  1. #1
    Administrators รูปส่วนตัว Duckload.us
    สมัครเมื่อ
    Dec 2010
    โพสต์
    135,849
    Thanks
    7
    Thanked 140,639 Times in 61,727 Posts

    Thumbs up [DSNP] The Quest (TV Series 2022) Season 1 [1080p][เสียงอังกฤษ5.1[EAC-3][h264][ซับไทย Disney+Hotstar TH PGS+Vobsub]




    The Quest คือการแข่งขันสุดแหวกแนวที่เด็กวัยรุ่นแปดคนต้องชิงช ัยกันกอบกู้อาณาจักร

    Format : Matroska
    Format version : Version 4 / Version 2
    File size : 2.14 GiB
    Duration : 45 min 22 s
    Overall bit rate mode : Variable
    Overall bit rate : 6 745 kb/s
    Movie name : The Quest (2022) [email protected]
    Encoded date : UTC 2022-05-14 09:04:21
    Writing application : mkvmerge v63.0.0 ('Everything') 64-bit
    Writing library : libebml v1.4.2 + libmatroska v1.6.4

    Video
    ID : 1
    Format : AVC
    Format/Info : Advanced Video Codec
    Format profile : [email protected]
    Format settings, CABAC : Yes
    Format settings, RefFrames : 4 frames
    Codec ID : V_MPEG4/ISO/AVC
    Duration : 45 min 22 s
    Bit rate mode : Variable
    Bit rate : 6 462 kb/s
    Maximum bit rate : 12.7 Mb/s
    Width : 1 920 pixels
    Height : 1 080 pixels
    Display aspect ratio : 16:9
    Frame rate mode : Constant
    Frame rate : 23.976 (24000/1001) FPS
    Color space : YUV
    Chroma subsampling : 4:2:0
    Bit depth : 8 bits
    Scan type : Progressive
    Bits/(Pixel*Frame) : 0.130
    Stream size : 2.05 GiB (96%)
    Language : English
    Default : Yes
    Forced : No
    Color range : Limited
    Color primaries : BT.709
    Transfer characteristics : BT.709
    Matrix coefficients : BT.709

    Audio
    ID : 2
    Format : E-AC-3
    Format/Info : Enhanced Audio Coding 3
    Format settings, Endianness : Big
    Codec ID : A_EAC3
    Duration : 45 min 22 s
    Bit rate mode : Constant
    Bit rate : 256 kb/s
    Channel(s) : 6 channels
    Channel positions : Front: L C R, Side: L R, LFE
    Sampling rate : 48.0 kHz
    Frame rate : 187.500 FPS (256 SPF)
    Compression mode : Lossy
    Stream size : 83.1 MiB (4%)
    Title : English-DDP 5.1
    Language : English
    Service kind : Complete Main
    Default : Yes
    Forced : No

    Text #1
    ID : 3
    Format : PGS
    Muxing mode : zlib
    Codec ID : S_HDMV/PGS
    Codec ID/Info : Picture based subtitle format used on BDs/HD-DVDs
    Duration : 45 min 14 s
    Bit rate : 39.7 kb/s
    Count of elements : 1120
    Stream size : 12.9 MiB (1%)
    Title : Thai-PGS From Hotstar
    Language : Thai
    Default : Yes
    Forced : No

    Text #2
    ID : 4
    Format : VobSub
    Muxing mode : zlib
    Codec ID : S_VOBSUB
    Codec ID/Info : Picture based subtitle format used on DVDs
    Duration : 45 min 14 s
    Bit rate : 9 592 b/s
    Count of elements : 558
    Stream size : 3.10 MiB (0%)
    Title : Thai-VOBSUB From Hotstar
    Language : Thai
    Default : Yes
    Forced : No

    Text #3
    ID : 5
    Format : UTF-8
    Codec ID : S_TEXT/UTF8
    Codec ID/Info : UTF-8 Plain Text
    Duration : 45 min 14 s
    Bit rate : 71 b/s
    Count of elements : 645
    Stream size : 23.6 KiB (0%)
    Title : English-SRT From Hotstar
    Language : English
    Default : Yes
    Forced : No













    Download:filecondo
    The.Quest.2022.S01E08.1080p.DSNP.WEB-DL.DDP5.1.h264.mkv
    http://www.filecondo.com/dl.php?f=8c32331NPUuF

    The.Quest.2022.S01E07.1080p.DSNP.WEB-DL.DDP5.1.h264.mkv
    http://www.filecondo.com/dl.php?f=If48941NPUqU

    The.Quest.2022.S01E06.1080p.DSNP.WEB-DL.DDP5.1.h264.mkv
    http://www.filecondo.com/dl.php?f=18d45c1NPUhZ

    The.Quest.2022.S01E05.1080p.DSNP.WEB-DL.DDP5.1.h264.mkv
    http://www.filecondo.com/dl.php?f=K85dd01NPUdW

    The.Quest.2022.S01E04.1080p.DSNP.WEB-DL.DDP5.1.h264.mkv
    http://www.filecondo.com/dl.php?f=Iffe881NPU9H

    The.Quest.2022.S01E03.1080p.DSNP.WEB-DL.DDP5.1.h264.mkv
    http://www.filecondo.com/dl.php?f=Q0620a1NPU3P

    The.Quest.2022.S01E02.1080p.DSNP.WEB-DL.DDP5.1.h264.mkv
    http://www.filecondo.com/dl.php?f=Jb49351NPU0s

    The.Quest.2022.S01E01.1080p.DSNP.WEB-DL.DDP5.1.h264.mkv
    http://www.filecondo.com/dl.php?f=x675961NPTWL

    Download:cornfile
    The.Quest.2022.S01E01.1080p.DSNP.WEB-DL.DDP5.1.h264.mkv - 2.1 GB
    The.Quest.2022.S01E02.1080p.DSNP.WEB-DL.DDP5.1.h264.mkv - 2.0 GB
    The.Quest.2022.S01E03.1080p.DSNP.WEB-DL.DDP5.1.h264.mkv - 1.8 GB
    The.Quest.2022.S01E04.1080p.DSNP.WEB-DL.DDP5.1.h264.mkv - 2.1 GB
    The.Quest.2022.S01E05.1080p.DSNP.WEB-DL.DDP5.1.h264.mkv - 2.0 GB
    The.Quest.2022.S01E06.1080p.DSNP.WEB-DL.DDP5.1.h264.mkv - 2.2 GB
    The.Quest.2022.S01E07.1080p.DSNP.WEB-DL.DDP5.1.h264.mkv - 1.8 GB
    The.Quest.2022.S01E08.1080p.DSNP.WEB-DL.DDP5.1.h264.mkv - 2.2 GB

  2. The Following User Says Thank You to Duckload.us For This Useful Post:

    whiteherbie (05-18-2022)

  3. #2
    Senior Member
    สมัครเมื่อ
    Dec 2011
    โพสต์
    2,773
    Thanks
    326
    Thanked 0 Times in 0 Posts
    Thank you ka

+ ตอบกลับกระทู้

ข้อมูลกระทู้

Users Browsing this Thread

ในขณะนี้มี 1 ท่านดูกระทู้อยู่. (0 สมาชิกและ 1 ผู้เยี่ยมชม)

     

กฎการโพสต์ข้อความ

  • ท่าน ไม่สามารถ ตั้งกระทู้ใหม่ได้
  • ท่าน ไม่สามารถ ตอบกระทู้ได้
  • ท่าน ไม่สามารถ แนบไฟล์ได้
  • ท่าน ไม่สามารถ แก้ไขข้อความโพสต์ได้
  • BB code สถานะ เปิด
  • Smilies สถานะ เปิด
  • [IMG] สถานะ เปิด
  • HTML สถานะ ปิด