เรื่องราวของ ไมเคิล มอร์เบียส (รับบทโดย จาเรด เลโต) นักชีวเคมีชายผู้พยายามหาวิธีรักษาโรคเลือดหายากของต นเอง

จนในที่สุดเขาก็พบวิธีจากค้างคาว แต่นอกจากที่มันจะสามารถรักษาเขาได้แล้ว มันยังทำให้เขาแข็งแกร่งเหนือมนุษย์

มีพลังวิเศษ และเป็นแวมไพร์จอมกระหายเลือดด้วย

Video
ID : 1
Format : AVC
Format/Info : Advanced Video Codec
Format profile : [email protected]
Format settings : CABAC / 2 Ref Frames
Format settings, CABAC : Yes
Format settings, Reference frames : 2 frames
Codec ID : V_MPEG4/ISO/AVC
Duration : 1 h 44 min
Bit rate : 5 393 kb/s
Width : 1 920 pixels
Height : 1 080 pixels
Display aspect ratio : 16:9
Frame rate mode : Constant
Frame rate : 23.976 (24000/1001) FPS
Color space : YUV
Chroma subsampling : 4:2:0
Bit depth : 8 bits
Scan type : Progressive
Bits/(Pixel*Frame) : 0.108
Stream size : 3.92 GiB (93%)
Writing library : x264 core 155 r2901 7d0ff22
Default : Yes
Forced : No
Color range : Limited
Color primaries : BT.709
Transfer characteristics : BT.709
Matrix coefficients : BT.709

Audio
ID : 2
Format : DTS LBR
Format/Info : Digital Theater Systems
Commercial name : DTS Express
Codec ID : A_DTS
Duration : 1 h 44 min
Bit rate mode : Constant
Bit rate : 384 kb/s
Channel(s) : 6 channels
Channel layout : C L R Ls Rs LFE
Sampling rate : 48.0 kHz
Frame rate : 11.719 FPS (4096 SPF)
Bit depth : 24 bits
Compression mode : Lossy
Stream size : 286 MiB (7%)
Language : English
Default : Yes
Forced : No

Text #1
ID : 3
Format : UTF-8
Codec ID : S_TEXT/UTF8
Codec ID/Info : UTF-8 Plain Text
Duration : 8 s 968 ms
Bit rate : 73 b/s
Count of elements : 2
Stream size : 82.0 Bytes (0%)
Title : English Forced
Language : English
Default : Yes
Forced : Yes

Text #2
ID : 4
Format : UTF-8
Codec ID : S_TEXT/UTF8
Codec ID/Info : UTF-8 Plain Text
Duration : 1 h 40 min
Bit rate : 47 b/s
Count of elements : 1340
Stream size : 35.3 KiB (0%)
Title : English SDH
Language : English
Default : No
Forced : No

Text #3
ID : 5
Format : UTF-8
Codec ID : S_TEXT/UTF8
Codec ID/Info : UTF-8 Plain Text
Duration : 1 h 42 min
Bit rate : 36 b/s
Count of elements : 942
Stream size : 27.2 KiB (0%)
Title : Czech
Language : Czech
Default : No
Forced : No

Text #4
ID : 6
Format : UTF-8
Codec ID : S_TEXT/UTF8
Codec ID/Info : UTF-8 Plain Text
Duration : 1 h 41 min
Bit rate : 35 b/s
Count of elements : 968
Stream size : 26.5 KiB (0%)
Title : German
Language : German
Default : No
Forced : No

Text #5
ID : 7
Format : UTF-8
Codec ID : S_TEXT/UTF8
Codec ID/Info : UTF-8 Plain Text
Duration : 1 h 41 min
Bit rate : 36 b/s
Count of elements : 933
Stream size : 27.1 KiB (0%)
Title : Spanish
Language : Spanish
Default : No
Forced : No

Text #6
ID : 8
Format : UTF-8
Codec ID : S_TEXT/UTF8
Codec ID/Info : UTF-8 Plain Text
Duration : 1 h 41 min
Bit rate : 35 b/s
Count of elements : 937
Stream size : 26.1 KiB (0%)
Title : Spanish Latin American
Language : Spanish
Default : No
Forced : No

Text #7
ID : 9
Format : UTF-8
Codec ID : S_TEXT/UTF8
Codec ID/Info : UTF-8 Plain Text
Duration : 1 h 42 min
Bit rate : 35 b/s
Count of elements : 915
Stream size : 26.3 KiB (0%)
Title : French European
Language : French
Default : No
Forced : No

Text #8
ID : 10
Format : UTF-8
Codec ID : S_TEXT/UTF8
Codec ID/Info : UTF-8 Plain Text
Duration : 1 h 41 min
Bit rate : 35 b/s
Count of elements : 938
Stream size : 26.1 KiB (0%)
Title : Indonesian
Language : Indonesian
Default : No
Forced : No

Text #9
ID : 11
Format : UTF-8
Codec ID : S_TEXT/UTF8
Codec ID/Info : UTF-8 Plain Text
Duration : 1 h 41 min
Bit rate : 38 b/s
Count of elements : 971
Stream size : 28.6 KiB (0%)
Title : Italian
Language : Italian
Default : No
Forced : No

Text #10
ID : 12
Format : UTF-8
Codec ID : S_TEXT/UTF8
Codec ID/Info : UTF-8 Plain Text
Duration : 1 h 42 min
Bit rate : 33 b/s
Count of elements : 908
Stream size : 25.0 KiB (0%)
Title : Japanese
Language : Japanese
Default : No
Forced : No

Text #11
ID : 13
Format : UTF-8
Codec ID : S_TEXT/UTF8
Codec ID/Info : UTF-8 Plain Text
Duration : 1 h 42 min
Bit rate : 35 b/s
Count of elements : 949
Stream size : 27.0 KiB (0%)
Title : Korean
Language : Korean
Default : No
Forced : No

Text #12
ID : 14
Format : UTF-8
Codec ID : S_TEXT/UTF8
Codec ID/Info : UTF-8 Plain Text
Duration : 1 h 42 min
Bit rate : 36 b/s
Count of elements : 915
Stream size : 27.6 KiB (0%)
Title : Polish
Language : Polish
Default : No
Forced : No

Text #13
ID : 15
Format : UTF-8
Codec ID : S_TEXT/UTF8
Codec ID/Info : UTF-8 Plain Text
Duration : 1 h 41 min
Bit rate : 36 b/s
Count of elements : 917
Stream size : 26.8 KiB (0%)
Title : Portuguese Brazilian
Language : Portuguese
Default : No
Forced : No

Text #14
ID : 16
Format : UTF-8
Codec ID : S_TEXT/UTF8
Codec ID/Info : UTF-8 Plain Text
Duration : 1 h 42 min
Bit rate : 82 b/s
Count of elements : 937
Stream size : 62.4 KiB (0%)
Title : Thai
Language : Thai
Default : No
Forced : No

Text #15
ID : 17
Format : UTF-8
Codec ID : S_TEXT/UTF8
Codec ID/Info : UTF-8 Plain Text
Duration : 1 h 42 min
Bit rate : 37 b/s
Count of elements : 937
Stream size : 28.1 KiB (0%)
Title : Turkish
Language : Turkish
Default : No
Forced : No

Text #16
ID : 18
Format : UTF-8
Codec ID : S_TEXT/UTF8
Codec ID/Info : UTF-8 Plain Text
Duration : 1 h 41 min
Bit rate : 49 b/s
Count of elements : 946
Stream size : 36.9 KiB (0%)
Title : Vietnamese
Language : Vietnamese
Default : No
Forced : No

Text #17
ID : 19
Format : UTF-8
Codec ID : S_TEXT/UTF8
Codec ID/Info : UTF-8 Plain Text
Duration : 1 h 42 min
Bit rate : 33 b/s
Count of elements : 941
Stream size : 25.4 KiB (0%)
Title : Chinese Simplified
Language : Chinese
Default : No
Forced : No

Text #18
ID : 20
Format : UTF-8
Codec ID : S_TEXT/UTF8
Codec ID/Info : UTF-8 Plain Text
Duration : 1 h 42 min
Bit rate : 31 b/s
Count of elements : 953
Stream size : 23.5 KiB (0%)
Title : Chinese Traditional
Language : Chinese
Default : No
Forced : No

มี PGS/Vobsub 1080P









[Soundtrack บรรยายไทย (Master)]
Download:filecondo
morbius.2022.1080p.web.h264-slot.mkv
http://www.filecondo.com/dl.php?f=8b22011NQTVN
Download:cornfile
https://www.cornfile.com/0q9djdpogkwb


[บรรยายไทยแปลWhatSubMannn]
Download:filecondo
Morbius_(2022).mkv
http://www.filecondo.com/dl.php?f=m9afa31NQyHO
Morbius_2022_1080p_WEB-Rip_x265_HEVC_10bit_AAC_5.1TAYOO.mkv
http://www.filecondo.com/dl.php?f=E162bd1NQyQC
Morbius.2022.1080p.WEB-DL.x264.AAC.mkv
http://www.filecondo.com/dl.php?f=Q4c9c91NQG5z
Morbius.2022.1080p.10bit.WEB-DL.60FPS.x265.HEVC.mkv
http://www.filecondo.com/dl.php?f=qb8d9b1NQG4q

Download:cornfile
Morbius (2022).mkv - 4.3 GB
Morbius 2022 1080p WEB-Rip x265 HEVC 10bit AAC 5.1TAYOO.mkv - 4.0 GB
Morbius.2022.1080p.10bit.WEB-DL.60FPS.x265.HEVC.mkv - 4.2 GB
Morbius.2022.1080p.WEB-DL.x264.AAC.mkv - 5.3 GB