+ ตอบกลับกระทู้
สรุปผลการค้นหา 1 ถึง 2 จากทั้งหมด 2
  1. #1
    Administrators รูปส่วนตัว Duckload.us
    สมัครเมื่อ
    Dec 2010
    โพสต์
    136,550
    Thanks
    7
    Thanked 141,349 Times in 61,962 Posts

    Thumbs up [ฝรั่ง]-Everything.Everywhere.All.At.Once(2022)ซือเจ๊ทะลุม ัลติเวิร์ส-WEB-DL.H.264.1080p. [Modified]-[พากย์ไทยโรง]



    Everything Everywhere All at Once บอกเล่าเรื่องราวของเอเวอลีน หวัง (มิเชล โหย่ว) หญิงชาวจีนที่ต้องแบกรับภาระทุกอย่างภายในครอบครัว จนวันหนึ่งได้ค้นพบตัวตนที่อยู่ในพหุจักรวาล ตัวตนในแต่ละมิติก็ต่างมีเป้าหมายในชีวิตแตกต่างกัน มีเส้นทางชีวิตที่เป็นทั้งคนดีและคนชั่ว และยังมีพลังที่เหนือกว่าคนธรรมดาทั่วไป นำไปสู่สงครามครั้งใหญ่ และการเป็นที่สุดแห่งซือเจ๊มหาประลัยเพียงหนึ่งเดียว

    Format : Matroska
    Format version : Version 4
    File size : 6.54 GiB
    Duration : 2 h 19 min
    Overall bit rate : 6 725 kb/s
    Movie name : Everything.Everywhere.All.At.Once(2022)ซือเจ๊ทะลุม ัลติเวิร์ส 1080p.WEB-DL.DDP5.1.H.264 @bURIN
    Encoded date : UTC 2022-05-17 15:56:28
    Writing application : mkvmerge v56.0.0 ('Strasbourg / St. Denis') 32-bit
    Writing library : libebml v1.4.2 + libmatroska v1.6.4 / Lavf58.76.100
    Comment : GalaxyRG - Everything.Everywhere.All.At.Once.2022.1080p.WEBRi p.1600MB.DD5.1.x264-GalaxyRG

    Video
    ID : 1
    Format : AVC
    Format/Info : Advanced Video Codec
    Format profile : [email protected]
    Format settings : CABAC / 2 Ref Frames
    Format settings, CABAC : Yes
    Format settings, Reference frames : 2 frames
    Codec ID : V_MPEG4/ISO/AVC
    Duration : 2 h 19 min
    Bit rate : 6 197 kb/s
    Width : 1 920 pixels
    Height : 1 080 pixels
    Display aspect ratio : 16:9
    Frame rate mode : Constant
    Frame rate : 23.976 (24000/1001) FPS
    Color space : YUV
    Chroma subsampling : 4:2:0
    Bit depth : 8 bits
    Scan type : Progressive
    Bits/(Pixel*Frame) : 0.125
    Stream size : 6.03 GiB (92%)
    Writing library : x264 core 155 r2901 7d0ff22
    Default : Yes
    Forced : No
    Color range : Limited
    Color primaries : BT.709
    Transfer characteristics : BT.709
    Matrix coefficients : BT.709

    Audio #1
    ID : 2
    Format : E-AC-3
    Format/Info : Enhanced AC-3
    Commercial name : Dolby Digital Plus
    Codec ID : A_EAC3
    Duration : 2 h 19 min
    Bit rate mode : Constant
    Bit rate : 384 kb/s
    Channel(s) : 6 channels
    Channel layout : L R C LFE Ls Rs
    Sampling rate : 48.0 kHz
    Frame rate : 31.250 FPS (1536 SPF)
    Compression mode : Lossy
    Stream size : 383 MiB (6%)
    Title : อังกฤษ E-AC-3
    Language : English
    Service kind : Complete Main
    Default : No
    Forced : No

    Audio #2
    ID : 3
    Format : AAC LC
    Format/Info : Advanced Audio Codec Low Complexity
    Codec ID : A_AAC-2
    Duration : 2 h 19 min
    Bit rate : 144 kb/s
    Channel(s) : 2 channels
    Channel layout : L R
    Sampling rate : 48.0 kHz
    Frame rate : 46.875 FPS (1024 SPF)
    Compression mode : Lossy
    Stream size : 141 MiB (2%)
    Title : ไทยโรง
    Language : Thai
    Default : Yes
    Forced : No





    Download:filecondo
    Everything.Everywhere.All.At.Once.2022.1080p.WEB-DL.DDP5.1.H.264-EVO_1.mp4
    http://www.filecondo.com/dl.php?f=j13adb1NRewZ
    Everything.Everywhere.All.At.Once.2022.1080p.WEB-DL.bURIN.mkv
    http://www.filecondo.com/dl.php?f=ge512e1NRefW

    Download:cornfile
    Everything.Everywhere.All.At.Once(2022)ซือเจ๊ทะลุม ัลติเวิร์ส 1080p.WEB-DL.DDP5.1.H.264 @bURIN.mkv - 6.5 GB
    Everything.Everywhere.All.At.Once.2022.1080p.WEB-DL.DDP5.1.H.264-EVO_1.mp4 - 4.8 GB

  2. The Following 2 Users Say Thank You to Duckload.us For This Useful Post:

    NaiWan (05-18-2022), Wesker_TOT (05-18-2022)

  3. #2
    Senior Member
    สมัครเมื่อ
    Dec 2013
    โพสต์
    3,713
    Thanks
    5,620
    Thanked 0 Times in 0 Posts
    ขอบคุณครับ...

+ ตอบกลับกระทู้

ข้อมูลกระทู้

Users Browsing this Thread

ในขณะนี้มี 1 ท่านดูกระทู้อยู่. (0 สมาชิกและ 1 ผู้เยี่ยมชม)

     

กฎการโพสต์ข้อความ

  • ท่าน ไม่สามารถ ตั้งกระทู้ใหม่ได้
  • ท่าน ไม่สามารถ ตอบกระทู้ได้
  • ท่าน ไม่สามารถ แนบไฟล์ได้
  • ท่าน ไม่สามารถ แก้ไขข้อความโพสต์ได้
  • BB code สถานะ เปิด
  • Smilies สถานะ เปิด
  • [IMG] สถานะ เปิด
  • HTML สถานะ ปิด