+ ตอบกลับกระทู้
สรุปผลการค้นหา 1 ถึง 4 จากทั้งหมด 4
  1. #1
    Administrators รูปส่วนตัว Duckload.us
    สมัครเมื่อ
    Dec 2010
    โพสต์
    136,550
    Thanks
    7
    Thanked 141,349 Times in 61,962 Posts

    Thumbs up [ฝรั่ง]-Chip n Dale: Rescue Rangers (2022) [1080p WEB-DL]-[เสียง: ไทย DD+ 5.1 + อังกฤษ Atmos]-[Sub: ไทย + อังกฤษ SRT]-WEB-DL.H.264.1080p. [Master]-[พากย์ไทย บรรยายไทย]



    Chip 'n Dale: Rescue Rangers บอกเล่าเรื่องราวของชิปและเดลที่อาศัยอยู่ในเมืองลอส แอนเจลิสในยุคปัจจุบัน แต่เป็นโลกที่มีทั้งมนุษย์และตัวการ์ตูนอาศัยอยู่ร่ว มกันอย่างลงตัว โดยกว่า 30 ปีที่รายการทีวีสุดฮิตของพวกเขา Rescue Rangers หยุดออกอากาศไป ชิป ใช้ชีวิตเหมือนคนทั่วไป ทำงานเป็นตัวแทนขายประกัน ในขณะที่เดล ซึ่งเข้ารับการศัลยกรรม CGI จนเป็นตัวการ์ตูนแอนิเมชันสามมิติ ก็ยังคงโหยหาช่วงชีวิตอันรุ่งโรจน์ในอดีตอยู่ตลอด แต่แล้ววันหนึ่งก็มีเหตุการณ์วุ่นวายเกิดขึ้น เมื่อเพื่อนการ์ตูนร่วมวงการหายตัวไปอย่างเป็นปริศนา ชิปและเดล จะต้องเปิดใจเข้าหากันและผนึกกำลังกันอีกครั้ง เพื่อสวมบทนักสืบ Rescue Rangers ที่คุ้นเคย และออกช่วยเหลือเพื่อนของพวกเขาให้ทันเวลา

    Format : Matroska
    Format version : Version 4
    File size : 5.30 GiB
    Duration : 1 h 36 min
    Overall bit rate mode : Variable
    Overall bit rate : 7 835 kb/s
    Encoded date : UTC 2022-05-20 07:35:15
    Writing application : mkvmerge v67.0.0 ('Under Stars') 64-bit
    Writing library : libebml v1.4.2 + libmatroska v1.6.4

    Video
    ID : 1
    Format : AVC
    Format/Info : Advanced Video Codec
    Format profile : [email protected]
    Format settings : CABAC / 4 Ref Frames
    Format settings, CABAC : Yes
    Format settings, Reference frames : 4 frames
    Codec ID : V_MPEG4/ISO/AVC
    Duration : 1 h 36 min
    Bit rate mode : Variable
    Bit rate : 6 873 kb/s
    Maximum bit rate : 12.7 Mb/s
    Width : 1 920 pixels
    Height : 1 080 pixels
    Display aspect ratio : 16:9
    Frame rate mode : Constant
    Frame rate : 24.000 FPS
    Color space : YUV
    Chroma subsampling : 4:2:0
    Bit depth : 8 bits
    Scan type : Progressive
    Bits/(Pixel*Frame) : 0.138
    Stream size : 4.65 GiB (88%)
    Language : English
    Default : Yes
    Forced : No
    Color range : Limited
    Color primaries : BT.709
    Transfer characteristics : BT.709
    Matrix coefficients : BT.709

    Audio #1
    ID : 2
    Format : E-AC-3 JOC
    Format/Info : Enhanced AC-3 with Joint Object Coding
    Commercial name : Dolby Digital Plus with Dolby Atmos
    Codec ID : A_EAC3
    Duration : 1 h 36 min
    Bit rate mode : Constant
    Bit rate : 768 kb/s
    Channel(s) : 6 channels
    Channel layout : L R C LFE Ls Rs
    Sampling rate : 48.0 kHz
    Frame rate : 31.250 FPS (1536 SPF)
    Compression mode : Lossy
    Stream size : 532 MiB (10%)
    Title : English (Atmos - D+)
    Language : English
    Service kind : Complete Main
    Default : No
    Forced : No
    Complexity index : 16
    Number of dynamic objects : 15
    Bed channel count : 1 channel
    Bed channel configuration : LFE

    Audio #2
    ID : 3
    Format : E-AC-3
    Format/Info : Enhanced AC-3
    Commercial name : Dolby Digital Plus
    Codec ID : A_EAC3
    Duration : 1 h 36 min
    Bit rate mode : Constant
    Bit rate : 192 kb/s
    Channel(s) : 6 channels
    Channel layout : L R C LFE Ls Rs
    Sampling rate : 48.0 kHz
    Frame rate : 31.250 FPS (1536 SPF)
    Compression mode : Lossy
    Stream size : 133 MiB (2%)
    Title : Thai (DD+ 5.1 - Hotstar)
    Language : Thai
    Service kind : Complete Main
    Default : Yes
    Forced : No

    Text #1
    ID : 4
    Format : UTF-8
    Codec ID : S_TEXT/UTF8
    Codec ID/Info : UTF-8 Plain Text
    Duration : 1 h 35 min
    Bit rate : 95 b/s
    Count of elements : 1688
    Stream size : 67.0 KiB (0%)
    Title : English (SRT - Hotstar)
    Language : English
    Default : No
    Forced : No

    Text #2
    ID : 5
    Format : UTF-8
    Codec ID : S_TEXT/UTF8
    Codec ID/Info : UTF-8 Plain Text
    Duration : 1 h 36 min
    Bit rate : 193 b/s
    Count of elements : 1524
    Stream size : 136 KiB (0%)
    Title : Thai (SRT - Hotstar)
    Language : Thai
    Default : Yes
    Forced : No





    Download:filecondo
    http://www.filecondo.com/dl.php?f=35e0c71NS2xl
    Download:cornfile
    https://www.cornfile.com/a1asy1j5i9dg

  2. The Following 5 Users Say Thank You to Duckload.us For This Useful Post:

    apichartdear (05-21-2022), bigbang06 (05-21-2022), Jodz14 (05-23-2022), sawara (05-31-2022), Wesker_TOT (05-21-2022)

  3. #2
    Senior Member
    สมัครเมื่อ
    Jul 2013
    โพสต์
    100
    Thanks
    0
    Thanked 0 Times in 0 Posts
    รอๆๆๆครับ filecondo

  4. #3
    Senior Member
    สมัครเมื่อ
    Dec 2013
    โพสต์
    3,713
    Thanks
    5,620
    Thanked 0 Times in 0 Posts
    ขอบคุณครับ...

  5. #4
    Senior Member
    สมัครเมื่อ
    Dec 2013
    โพสต์
    628
    Thanks
    572
    Thanked 0 Times in 0 Posts
    ขอบคุณครับบ

+ ตอบกลับกระทู้

ข้อมูลกระทู้

Users Browsing this Thread

ในขณะนี้มี 1 ท่านดูกระทู้อยู่. (0 สมาชิกและ 1 ผู้เยี่ยมชม)

     

กฎการโพสต์ข้อความ

  • ท่าน ไม่สามารถ ตั้งกระทู้ใหม่ได้
  • ท่าน ไม่สามารถ ตอบกระทู้ได้
  • ท่าน ไม่สามารถ แนบไฟล์ได้
  • ท่าน ไม่สามารถ แก้ไขข้อความโพสต์ได้
  • BB code สถานะ เปิด
  • Smilies สถานะ เปิด
  • [IMG] สถานะ เปิด
  • HTML สถานะ ปิด