+ ตอบกลับกระทู้
สรุปผลการค้นหา 1 ถึง 2 จากทั้งหมด 2
  1. #1
    Administrators รูปส่วนตัว Duckload.us
    สมัครเมื่อ
    Dec 2010
    โพสต์
    136,553
    Thanks
    7
    Thanked 141,368 Times in 61,965 Posts

    Thumbs up [ฝรั่ง]-[18+] [NETFLIX] Jackass 4.5 (2022) แจ็คแอส 4.5-WEB-DL.EAC-3.1080p. [Netflix (web-dl)]-[พากย์อังกฤษ 5.1 บรรยายไทย (Master)-อังกฤษ]




    สัมผัสเบื้องหลังการถ่ายทำฉากบ้าดีเดือดของทีมสร้างแ จ็กแอส ผ่านฟุตเทจบันทึกวีรกรรมหลุดโลกที่ไม่เคยเปิดเผยที่ไ หนมาก่อน

    Format : Matroska
    Format version : Version 4
    File size : 4.29 GiB
    Duration : 1 h 30 min
    Overall bit rate : 6 777 kb/s
    Encoded date : UTC 2022-05-20 13:10:19
    Writing application : mkvmerge v55.0.0 ('Waiting For Space') 64-bit
    Writing library : libebml v1.4.2 + libmatroska v1.6.4

    Video
    ID : 1
    Format : AVC
    Format/Info : Advanced Video Codec
    Format profile : [email protected]
    Format settings : CABAC / 3 Ref Frames
    Format settings, CABAC : Yes
    Format settings, Reference : 3 frames
    Codec ID : V_MPEG4/ISO/AVC
    Duration : 1 h 30 min
    Bit rate : 6 051 kb/s
    Width : 1 920 pixels
    Height : 1 080 pixels
    Display aspect ratio : 16:9
    Frame rate mode : Constant
    Frame rate : 23.976 (24000/1001) FPS
    Color space : YUV
    Chroma subsampling : 4:2:0
    Bit depth : 8 bits
    Scan type : Progressive
    Bits/(Pixel*Frame) : 0.122
    Stream size : 3.83 GiB (89%)
    Language : English
    Default : Yes
    Forced : No

    Audio
    ID : 2
    Format : E-AC-3
    Format/Info : Enhanced AC-3
    Commercial name : Dolby Digital Plus
    Codec ID : A_EAC3
    Duration : 1 h 30 min
    Bit rate mode : Constant
    Bit rate : 640 kb/s
    Channel(s) : 6 channels
    Channel layout : L R C LFE Ls Rs
    Sampling rate : 48.0 kHz
    Frame rate : 31.250 FPS (1536 SPF)
    Compression mode : Lossy
    Stream size : 414 MiB (9%)
    Title : E-AC3 English
    Language : English
    Service kind : Complete Main
    Default : Yes
    Forced : No

    Text #1
    ID : 3
    Format : VobSub
    Muxing mode : zlib
    Codec ID : S_VOBSUB
    Codec ID/Info : Picture based subtitle format used on DVDs
    Duration : 1 h 28 min
    Bit rate : 16.4 kb/s
    Count of elements : 1468
    Stream size : 10.3 MiB (0%)
    Title : Sub Thai 1080p
    Language : Thai
    Default : No
    Forced : No

    Text #2
    ID : 4
    Format : UTF-8
    Codec ID : S_TEXT/UTF8
    Codec ID/Info : UTF-8 Plain Text
    Duration : 1 h 28 min
    Bit rate : 168 b/s
    Count of elements : 1468
    Stream size : 109 KiB (0%)
    Title : Sub Thai SRT
    Language : Thai
    Default : No
    Forced : No

    Text #3
    ID : 5
    Format : PGS
    Muxing mode : zlib
    Codec ID : S_HDMV/PGS
    Codec ID/Info : Picture based subtitle format used on BDs/HD-DVDs
    Duration : 1 h 28 min
    Bit rate : 48.9 kb/s
    Count of elements : 2936
    Stream size : 30.9 MiB (1%)
    Title : Sub Thai PGS
    Language : Thai
    Default : No
    Forced : No

    Text #4
    ID : 6
    Format : PGS
    Muxing mode : zlib
    Codec ID : S_HDMV/PGS
    Codec ID/Info : Picture based subtitle format used on BDs/HD-DVDs
    Duration : 1 h 28 min
    Bit rate : 82.1 kb/s
    Count of elements : 2936
    Stream size : 51.9 MiB (1%)
    Title : Sub Thai PGS NETFLIX
    Language : Thai
    Default : Yes
    Forced : No

    Text #5
    ID : 7
    Format : UTF-8
    Codec ID : S_TEXT/UTF8
    Codec ID/Info : UTF-8 Plain Text
    Duration : 1 h 28 min
    Bit rate : 117 b/s
    Count of elements : 1994
    Stream size : 76.3 KiB (0%)
    Title : Sub English SRT
    Language : English
    Default : No
    Forced : No






    Download:filecondo
    http://www.filecondo.com/dl.php?f=R9bc121NSJXn
    Download:cornfile
    https://www.cornfile.com/mgoyfa5l6eko

  2. The Following 2 Users Say Thank You to Duckload.us For This Useful Post:

    jackjangri (05-23-2022), rakterkonne (05-24-2022)

  3. #2
    I'm donate !
    สมัครเมื่อ
    Jun 2011
    โพสต์
    442
    Thanks
    597
    Thanked 40 Times in 29 Posts
    thankyou...

+ ตอบกลับกระทู้

ข้อมูลกระทู้

Users Browsing this Thread

ในขณะนี้มี 1 ท่านดูกระทู้อยู่. (0 สมาชิกและ 1 ผู้เยี่ยมชม)

     

กฎการโพสต์ข้อความ

  • ท่าน ไม่สามารถ ตั้งกระทู้ใหม่ได้
  • ท่าน ไม่สามารถ ตอบกระทู้ได้
  • ท่าน ไม่สามารถ แนบไฟล์ได้
  • ท่าน ไม่สามารถ แก้ไขข้อความโพสต์ได้
  • BB code สถานะ เปิด
  • Smilies สถานะ เปิด
  • [IMG] สถานะ เปิด
  • HTML สถานะ ปิด