+ ตอบกลับกระทู้
สรุปผลการค้นหา 1 ถึง 2 จากทั้งหมด 2
  1. #1
    Administrators รูปส่วนตัว Duckload.us
    สมัครเมื่อ
    Dec 2010
    โพสต์
    136,553
    Thanks
    7
    Thanked 141,368 Times in 61,965 Posts

    Thumbs up [อินเดีย]-[NETFLIX] RRR (Rise Roar Revolt) (2022) ภารกิจทริปเปิ้ลอาร์-WEB-DL.EAC-3.Atmos.1080p. [Netflix (web-dl)]-[พากย์อินเดีย Atmos 5.1 บรรยายไทย (Master)-อังกฤษ]




    เรื่องราวเกิดขึ้นในช่วงยุคของอังกฤษ มัลลี เด็กสาวชนเผ่าเล็กๆ ถูกผู้ว่าการอังกฤษ สก็อตต์ บักซ์ตัน และแคทเธอรีน ภรรยาของเขา พาตัวไปโดยขัดกับความปรารถนาของพ่อแม่ของเธอ รามา ราจู ตำรวจอินเดียที่ทำงานให้กับกองทัพอังกฤษเพื่อทำหน้าท ี่ของเขาต้องมาก่อนและโหดเหี้ยมมาก ชาวอินเดียปฏิวัติ แต่เขาไม่เคยได้รับเครดิตจากรัฐบาลอังกฤษ รัฐบาลอังกฤษพบว่าชนเผ่า Komaram Bheem ซึ่งถือว่า Malli น้องสาวของเขาได้เริ่มค้นหาเธอและอาจเป็นอุปสรรคต่อก องทัพอังกฤษ ผู้ว่าการและภรรยาของเขาประกาศ โพสต์พิเศษสำหรับเจ้าหน้าที่ที่สามารถนำบีมมาให้ได้ รามาราจูตัดสินใจรับเรื่องไว้ในมือ และให้สัญญากับทางรัฐบาลว่าจะนำตัวบีมไปตายหรือมีชีว ิต ตอนนี้บีมมาถึงเมืองเพื่อตามหามัลลีแล้วแสร้งทำเป็นเ ป็น ช่างเครื่อง Afzal ระหว่างอุบัติเหตุรถไฟในทะเลสาบ เขาและพระรามราจูเสี่ยงชีวิตและช่วยชีวิตเด็กและกลาย เป็นเพื่อนที่ดีที่สุด แต่ชายทั้งสองจะปะทะกันและจะกระหายเลือดของกันและกัน เพื่อให้สมบูรณ์ ภารกิจ

    Format : Matroska
    Format version : Version 4
    File size : 6.27 GiB
    Duration : 3 h 5 min
    Overall bit rate : 4 844 kb/s
    Encoded date : UTC 2022-05-20 14:51:00
    Writing application : mkvmerge v55.0.0 ('Waiting For Space') 64-bit
    Writing library : libebml v1.4.2 + libmatroska v1.6.4

    Video
    ID : 1
    Format : AVC
    Format/Info : Advanced Video Codec
    Format profile : [email protected]
    Format settings : CABAC / 3 Ref Frames
    Format settings, CABAC : Yes
    Format settings, Reference : 3 frames
    Codec ID : V_MPEG4/ISO/AVC
    Duration : 3 h 5 min
    Bit rate : 4 060 kb/s
    Width : 1 920 pixels
    Height : 1 008 pixels
    Display aspect ratio : 1.905
    Frame rate mode : Constant
    Frame rate : 24.000 FPS
    Color space : YUV
    Chroma subsampling : 4:2:0
    Bit depth : 8 bits
    Scan type : Progressive
    Bits/(Pixel*Frame) : 0.087
    Stream size : 5.25 GiB (84%)
    Language : Hindi
    Default : Yes
    Forced : No

    Audio
    ID : 2
    Format : E-AC-3 JOC
    Format/Info : Enhanced AC-3 with Joint Object Coding
    Commercial name : Dolby Digital Plus with Dolby Atmos
    Codec ID : A_EAC3
    Duration : 3 h 5 min
    Bit rate mode : Constant
    Bit rate : 768 kb/s
    Channel(s) : 6 channels
    Channel layout : L R C LFE Ls Rs
    Sampling rate : 48.0 kHz
    Frame rate : 31.250 FPS (1536 SPF)
    Compression mode : Lossy
    Stream size : 1 017 MiB (16%)
    Title : E-AC3 Atmos Hindi
    Language : Hindi
    Service kind : Complete Main
    Default : Yes
    Forced : No
    Complexity index : 16
    Number of dynamic objects : 15
    Bed channel count : 1 channel
    Bed channel configuration : LFE

    Text #1
    ID : 3
    Format : VobSub
    Muxing mode : zlib
    Codec ID : S_VOBSUB
    Codec ID/Info : Picture based subtitle format used on DVDs
    Duration : 3 h 5 min
    Bit rate : 7 381 b/s
    Count of elements : 1461
    Stream size : 9.78 MiB (0%)
    Title : Sub Thai 1080p
    Language : Thai
    Default : No
    Forced : No

    Text #2
    ID : 4
    Format : UTF-8
    Codec ID : S_TEXT/UTF8
    Codec ID/Info : UTF-8 Plain Text
    Duration : 3 h 5 min
    Bit rate : 76 b/s
    Count of elements : 1461
    Stream size : 103 KiB (0%)
    Title : Sub Thai SRT
    Language : Thai
    Default : No
    Forced : No

    Text #3
    ID : 5
    Format : PGS
    Muxing mode : zlib
    Codec ID : S_HDMV/PGS
    Codec ID/Info : Picture based subtitle format used on BDs/HD-DVDs
    Duration : 3 h 5 min
    Bit rate : 22.2 kb/s
    Count of elements : 2922
    Stream size : 29.4 MiB (0%)
    Title : Sub Thai PGS
    Language : Thai
    Default : Yes
    Forced : No

    Text #4
    ID : 6
    Format : UTF-8
    Codec ID : S_TEXT/UTF8
    Codec ID/Info : UTF-8 Plain Text
    Duration : 2 h 56 min
    Bit rate : 36 b/s
    Count of elements : 1429
    Stream size : 47.3 KiB (0%)
    Title : Sub English SRT
    Language : English
    Default : No
    Forced : No






    Download:filecondo
    RRR_(Rise_Roar_Revolt)_(2022).mkv
    http://www.filecondo.com/dl.php?f=6c4c9e1NSK7H
    RRR.2022.Hindi.1080p.NF.WEB-DL.DDPA5.1.Atmos.H.264.mkv
    http://www.filecondo.com/dl.php?f=Jee0d01NSKyE

    Download:cornfile
    RRR (Rise Roar Revolt) (2022).mkv - 6.3 GB
    RRR.2022.Hindi.1080p.NF.WEB-DL.DDPA5.1.Atmos.H.264.mkv - 8.0 GB

  2. The Following User Says Thank You to Duckload.us For This Useful Post:

    roc_dave (05-22-2022)

  3. #2
    Senior Member
    สมัครเมื่อ
    Jul 2013
    โพสต์
    3,335
    Thanks
    0
    Thanked 0 Times in 0 Posts
    ขอบคุณครับ

+ ตอบกลับกระทู้

ข้อมูลกระทู้

Users Browsing this Thread

ในขณะนี้มี 1 ท่านดูกระทู้อยู่. (0 สมาชิกและ 1 ผู้เยี่ยมชม)

     

กฎการโพสต์ข้อความ

  • ท่าน ไม่สามารถ ตั้งกระทู้ใหม่ได้
  • ท่าน ไม่สามารถ ตอบกระทู้ได้
  • ท่าน ไม่สามารถ แนบไฟล์ได้
  • ท่าน ไม่สามารถ แก้ไขข้อความโพสต์ได้
  • BB code สถานะ เปิด
  • Smilies สถานะ เปิด
  • [IMG] สถานะ เปิด
  • HTML สถานะ ปิด