+ ตอบกลับกระทู้
สรุปผลการค้นหา 1 ถึง 2 จากทั้งหมด 2
  1. #1
    Administrators รูปส่วนตัว Duckload.us
    สมัครเมื่อ
    Dec 2010
    โพสต์
    136,553
    Thanks
    7
    Thanked 141,368 Times in 61,965 Posts

    Thumbs up [ฝรั่ง]-[* 1080p HDCAM! *] The Unbearable Weight of Massive Talent (2022) : ข้านี่แหละ นิค ‘ฟักกลิ้ง’ เคจ [พากย์ไทยโรง + เสียงอังกฤษ ]



    ••• The.Unbearable.Weight.of.Massive.Talent.2022.1080p .HDCAM •••
    เสียง : พากย์ไทยโรง + เสียงอังกฤษ

    The Unbearable Weight of Massive Talent ภาพยนตร์เรื่องนี้เล่าถึง ‘นิโคลัส เคจ’ (รับบทโดยนิโคลัส เคจ) ดาราฮอลลีวูดรุ่นใหญ่ตกอับ ที่แม้ว่าในอดีตจะเคยฝากผลงานอันยิ่งใหญ่เอาไว้มากมา ยทั้ง Con Air และ Face/Off แต่เขากลับต้องมาเผชิญช่วงเวลาที่ยากลำบากไม่มีใครจ้ างงาน จนต้องจำใจยอมรับข้อเสนอที่ไม่น่าไว้วางใจให้เดินทาง ไปร่วมงานวันเกิดของมหาเศรษฐีชาวเม็กซิกันแลกกับเงิน หนึ่งล้านดอลลาร์สหรัฐ ฯ และเขาก็พบว่ามหาเศรษฐีคนนี้เป็นแฟนพันธุ์แท้ของตัวเ ขาเอง แต่เรื่องราวสุดวายป่วงยังไม่จบลงแค่นี้ เมื่อเคจพบว่าภายใต้หน้ากากแฟนพันธุ์แท้ ‘นิค เคจ’ มหาเศรษฐีคนนี้คือ เจ้าพ่อค้ายารายใหญ่ที่เป็นที่ต้องการตัวของ CIA นั่นทำให้เขาถูกหมายหัวในฐานะผู้สมรู้ร่วมคิด เคจต้องตกกระไดพลอยโจนสวมบทบาทในอดีตที่เคยสร้างชื่อ ให้กับเขาเพื่อหาทางเอาตัวรอดจากสถานการณ์นี้ไปให้ได ้!

    Format : Matroska
    Format version : Version 4
    File size : 4.42 GiB
    Duration : 1 h 37 min
    Overall bit rate : 6 469 kb/s
    Movie name : The.Unbearable.Weight.of.Massive.Talent.2022.1080p [email protected]

    Video
    ID : 1
    Format : AVC
    Format/Info : Advanced Video Codec
    Format profile : [email protected]
    Format settings : CABAC / 1 Ref Frames
    Format settings, CABAC : Yes
    Format settings, Reference : 1 frame
    Format settings, GOP : M=1, N=30
    Codec ID : V_MPEG4/ISO/AVC
    Duration : 1 h 37 min
    Bit rate : 5 890 kb/s
    Width : 1 920 pixels
    Height : 1 080 pixels
    Display aspect ratio : 16:9
    Frame rate mode : Constant
    Frame rate : 30.000 FPS
    Color space : YUV
    Chroma subsampling : 4:2:0
    Bit depth : 8 bits
    Scan type : Progressive
    Bits/(Pixel*Frame) : 0.095
    Stream size : 4.03 GiB (91%)
    Title : The.Unbearable.Weight.of.Massive.Talent.2022.1080p [email protected]
    Writing library : x264 core 158 r2984 3759fcb
    Encoding settings : cabac=1 / ref=1 / deblock=1:0:0 / analyse=0x3:0x113 / me=hex / subme=2 / psy=1 / psy_rd=1.00:0.00 / mixed_ref=0 / me_range=16 / chroma_me=1 / trellis=0 / 8x8dct=1 / cqm=0 / deadzone=21,11 / fast_pskip=1 / chroma_qp_offset=0 / threads=18 / lookahead_threads=6 / sliced_threads=0 / nr=0 / decimate=1 / interlaced=0 / bluray_compat=0 / constrained_intra=0 / bframes=0 / weightp=1 / keyint=30 / keyint_min=3 / scenecut=40 / intra_refresh=0 / rc_lookahead=10 / rc=crf / mbtree=1 / crf=18.0 / qcomp=0.60 / qpmin=18 / qpmax=18 / qpstep=4 / ip_ratio=1.40 / aq=1:1.00
    Language : English
    Default : Yes
    Forced : No
    Color range : Full

    Audio #1
    ID : 2
    Format : AC-3
    Format/Info : Audio Coding 3
    Commercial name : Dolby Digital
    Codec ID : A_AC3
    Duration : 1 h 37 min
    Bit rate mode : Constant
    Bit rate : 384 kb/s
    Channel(s) : 2 channels
    Channel layout : L R
    Sampling rate : 48.0 kHz
    Frame rate : 31.250 FPS (1536 SPF)
    Compression mode : Lossy
    Delay relative to video : -46 ms
    Stream size : 269 MiB (6%)
    Title : ThaiRong 2.0 @ 384 kb/s ByMr.Captain
    Language : Thai
    Service kind : Complete Main
    Default : Yes
    Forced : Yes

    Audio #2
    ID : 3
    Format : AAC LC
    Format/Info : Advanced Audio Codec Low Complexity
    Codec ID : A_AAC-2
    Duration : 1 h 37 min
    Bit rate : 192 kb/s
    Channel(s) : 2 channels
    Channel layout : L R
    Sampling rate : 44.1 kHz
    Frame rate : 43.066 FPS (1024 SPF)
    Compression mode : Lossy
    Delay relative to video : -46 ms
    Stream size : 134 MiB (3%)
    Title : English 2.0 @ 192 kb/s
    Language : English
    Default : No
    Forced : No





    Cr : NongZEZA~

    Download:filecondo
    http://www.filecondo.com/dl.php?f=qa10921NT5bZ
    Download:cornfile
    https://www.cornfile.com/uq9l35anuhu8

  2. The Following User Says Thank You to Duckload.us For This Useful Post:

    Wesker_TOT (05-25-2022)

  3. #2
    Senior Member
    สมัครเมื่อ
    Dec 2013
    โพสต์
    3,713
    Thanks
    5,620
    Thanked 0 Times in 0 Posts
    ขอบคุณครับ...

+ ตอบกลับกระทู้

ข้อมูลกระทู้

Users Browsing this Thread

ในขณะนี้มี 1 ท่านดูกระทู้อยู่. (0 สมาชิกและ 1 ผู้เยี่ยมชม)

     

กฎการโพสต์ข้อความ

  • ท่าน ไม่สามารถ ตั้งกระทู้ใหม่ได้
  • ท่าน ไม่สามารถ ตอบกระทู้ได้
  • ท่าน ไม่สามารถ แนบไฟล์ได้
  • ท่าน ไม่สามารถ แก้ไขข้อความโพสต์ได้
  • BB code สถานะ เปิด
  • Smilies สถานะ เปิด
  • [IMG] สถานะ เปิด
  • HTML สถานะ ปิด