+ ตอบกลับกระทู้
สรุปผลการค้นหา 1 ถึง 3 จากทั้งหมด 3
  1. #1
    Administrators รูปส่วนตัว Duckload.us
    สมัครเมื่อ
    Dec 2010
    โพสต์
    136,553
    Thanks
    7
    Thanked 141,368 Times in 61,965 Posts

    Thumbs up [ฝรั่งเศส]-[*V.1*] Superwho (2021) [Super-hé ros malgré lui] ซูเปอร์ฮู ฮีโร่ ฮีรั่ว @CtHts • [พากย์ไทยโรง + เสียงฝรั่งเศส ] [* 1080p HDTS! *]



    ••• Super.heros.malgre.lui.2021.1080p.HDTS.x264 •••
    เสียง : พากย์ไทยโรง + เสียงฝรั่งเศส

    Superwho? เตรียมพบกับผลงานใหม่จากทีมผู้สร้าง City Hunter กับสุดยอดหนังซูเปอร์ฮีโร่สุดรั่ว หัวจะปวดแห่งปี ที่จะทำให้คุณต้องขำกรามค้าม ไปกับวีรกรรมสุดห่ามเกินต้านทาน SuperWho ฮีโร่ ฮีรั่ว

    เรื่องราวของ “เซดริก” ดาราตัวประกอบต๊อกต๋อย ที่จับพลัดจับพลูได้รับบทนำ “ยอดมนุษย์ค้างคืน” ซูเปอร์ฮีโร่คนแรกจากฝรั่งเศส แต่คนมันจะดวงซวย อะไรก็ช่วยไม่ได้ เมื่อ เซดริก ดันประสบอุบัติเหตุ จนความจำเสื่อม ขณะสวมชุดซูเปอร์ฮีโร่ จนทำให้เขาหลงนึกไปว่าตัวเองคือ “ยอดมนุษย์ค้างคืน” ตัวจริง เสียงจริง เมื่อเป็นเช่นนั้น ปฏิบัติการณ์กู้โลกแบบฉบับฮีโร่สุดรั่วจึงเริ่มต้นขึ ้น พร้อมความฮาบรรลัยไปทุกหย่อมหญ้า!


    Format : Matroska
    Format version : Version 4
    File size : 3.23 GiB
    Duration : 1 h 17 min
    Overall bit rate : 5 982 kb/s
    Movie name : Super.heros.malgre.lui.2021.1080p.HDTS.x264_Mr.Cap [email protected]

    Video
    ID : 1
    Format : AVC
    Format/Info : Advanced Video Codec
    Format profile : [email protected]
    Format settings : CABAC / 1 Ref Frames
    Format settings, CABAC : Yes
    Format settings, Reference : 1 frame
    Format settings, GOP : M=1, N=24
    Codec ID : V_MPEG4/ISO/AVC
    Duration : 1 h 17 min
    Bit rate : 5 403 kb/s
    Width : 1 920 pixels
    Height : 744 pixels
    Display aspect ratio : 2.581
    Frame rate mode : Constant
    Frame rate : 24.000 FPS
    Color space : YUV
    Chroma subsampling : 4:2:0
    Bit depth : 8 bits
    Scan type : Progressive
    Bits/(Pixel*Frame) : 0.158
    Stream size : 2.92 GiB (90%)
    Title : Super.heros.malgre.lui.2021.1080p.HDTS.x264_Mr.Cap [email protected]
    Writing library : x264 core 158 r2984 3759fcb
    Encoding settings : cabac=1 / ref=1 / deblock=1:0:0 / analyse=0x3:0x113 / me=hex / subme=2 / psy=1 / psy_rd=1.00:0.00 / mixed_ref=0 / me_range=16 / chroma_me=1 / trellis=0 / 8x8dct=1 / cqm=0 / deadzone=21,11 / fast_pskip=1 / chroma_qp_offset=0 / threads=18 / lookahead_threads=5 / sliced_threads=0 / nr=0 / decimate=1 / interlaced=0 / bluray_compat=0 / constrained_intra=0 / bframes=0 / weightp=1 / keyint=24 / keyint_min=2 / scenecut=40 / intra_refresh=0 / rc_lookahead=10 / rc=crf / mbtree=1 / crf=18.0 / qcomp=0.60 / qpmin=18 / qpmax=18 / qpstep=4 / ip_ratio=1.40 / aq=1:1.00
    Language : French
    Default : Yes
    Forced : Yes
    Color range : Full

    Audio #1
    ID : 2
    Format : AC-3
    Format/Info : Audio Coding 3
    Commercial name : Dolby Digital
    Codec ID : A_AC3
    Duration : 1 h 17 min
    Bit rate mode : Constant
    Bit rate : 384 kb/s
    Channel(s) : 2 channels
    Channel layout : L R
    Sampling rate : 48.0 kHz
    Frame rate : 31.250 FPS (1536 SPF)
    Compression mode : Lossy
    Delay relative to video : -46 ms
    Stream size : 212 MiB (6%)
    Title : ThaiRong @ 384 kb/s By Mr.Captain
    Language : Thai
    Service kind : Complete Main
    Default : Yes
    Forced : Yes

    Audio #2
    ID : 3
    Format : AAC LC
    Format/Info : Advanced Audio Codec Low Complexity
    Codec ID : A_AAC-2
    Duration : 1 h 17 min
    Bit rate : 192 kb/s
    Channel(s) : 2 channels
    Channel layout : L R
    Sampling rate : 44.1 kHz
    Frame rate : 43.066 FPS (1024 SPF)
    Compression mode : Lossy
    Delay relative to video : -46 ms
    Stream size : 106 MiB (3%)
    Title : French @ 48.0 kHz
    Language : French
    Default : No
    Forced : No





    Cr : NongZEZA~

    Download:filecondo
    http://www.filecondo.com/dl.php?f=303e9d1NT5aV
    Download:cornfile
    https://www.cornfile.com/qm9m9zy4h3yw

  2. The Following User Says Thank You to Duckload.us For This Useful Post:

    Wesker_TOT (05-25-2022)

  3. #2
    Senior Member
    สมัครเมื่อ
    Dec 2013
    โพสต์
    3,713
    Thanks
    5,620
    Thanked 0 Times in 0 Posts
    ขอบคุณครับ...

  4. #3
    Senior Member
    สมัครเมื่อ
    Jul 2013
    โพสต์
    3,335
    Thanks
    0
    Thanked 0 Times in 0 Posts
    ขอบคุณครับ

+ ตอบกลับกระทู้

ข้อมูลกระทู้

Users Browsing this Thread

ในขณะนี้มี 1 ท่านดูกระทู้อยู่. (0 สมาชิกและ 1 ผู้เยี่ยมชม)

     

กฎการโพสต์ข้อความ

  • ท่าน ไม่สามารถ ตั้งกระทู้ใหม่ได้
  • ท่าน ไม่สามารถ ตอบกระทู้ได้
  • ท่าน ไม่สามารถ แนบไฟล์ได้
  • ท่าน ไม่สามารถ แก้ไขข้อความโพสต์ได้
  • BB code สถานะ เปิด
  • Smilies สถานะ เปิด
  • [IMG] สถานะ เปิด
  • HTML สถานะ ปิด