+ ตอบกลับกระทู้
สรุปผลการค้นหา 1 ถึง 3 จากทั้งหมด 3
  1. #1
    Administrators รูปส่วนตัว Duckload.us
    สมัครเมื่อ
    Dec 2010
    โพสต์
    136,615
    Thanks
    7
    Thanked 141,466 Times in 62,004 Posts

    Thumbs up [ฝรั่ง]-Dual (2022) -WEB-DL.EAC-3.1080p. [Modified]-[พากย์อังกฤษ 5.1 บรรยายไทย (อนันต์ โพธิสูง)-อังกฤษ]




    หญิงคนหนึ่ง ได้เลือกใช้ขั้นตอนการโคลนนิ่ง หลังจากที่เธอได้รับการวินิจฉัยขั้นสุดท้ายแล้ว แต่เมื่อเธอกลับฟื้นขึ้นมา ความพยายามที่จะยกเลิกใช้ร่างโคลนของเธอนั้นล้มเหลว นำไปสู่การดวลกัน ตามคำสั่งศาล จนกว่าจะเสียชีวิต

    Format : Matroska
    Format version : Version 4
    File size : 4.29 GiB
    Duration : 1 h 34 min
    Overall bit rate : 6 511 kb/s
    Encoded date : UTC 2022-05-25 12:22:56
    Writing application : mkvmerge v55.0.0 ('Waiting For Space') 64-bit
    Writing library : libebml v1.4.2 + libmatroska v1.6.4

    Video
    ID : 1
    Format : AVC
    Format/Info : Advanced Video Codec
    Format profile : [email protected]
    Format settings : CABAC / 3 Ref Frames
    Format settings, CABAC : Yes
    Format settings, Reference : 3 frames
    Codec ID : V_MPEG4/ISO/AVC
    Duration : 1 h 34 min
    Bit rate : 6 100 kb/s
    Width : 1 920 pixels
    Height : 1 030 pixels
    Display aspect ratio : 1.85:1
    Frame rate mode : Constant
    Frame rate : 23.976 (24000/1001) FPS
    Color space : YUV
    Chroma subsampling : 4:2:0
    Bit depth : 8 bits
    Scan type : Progressive
    Bits/(Pixel*Frame) : 0.129
    Stream size : 4.02 GiB (94%)
    Language : English
    Default : Yes
    Forced : No
    Color range : Limited
    Color primaries : BT.709
    Transfer characteristics : BT.709
    Matrix coefficients : BT.709

    Audio
    ID : 2
    Format : E-AC-3
    Format/Info : Enhanced AC-3
    Commercial name : Dolby Digital Plus
    Codec ID : A_EAC3
    Duration : 1 h 34 min
    Bit rate mode : Constant
    Bit rate : 384 kb/s
    Channel(s) : 6 channels
    Channel layout : L R C LFE Ls Rs
    Sampling rate : 48.0 kHz
    Frame rate : 31.250 FPS (1536 SPF)
    Compression mode : Lossy
    Stream size : 259 MiB (6%)
    Title : E-AC3 English
    Language : English
    Service kind : Complete Main
    Default : Yes
    Forced : No

    Text #1
    ID : 3
    Format : VobSub
    Muxing mode : zlib
    Codec ID : S_VOBSUB
    Codec ID/Info : Picture based subtitle format used on DVDs
    Duration : 1 h 28 min
    Bit rate : 12.9 kb/s
    Count of elements : 1212
    Stream size : 8.18 MiB (0%)
    Title : Sub Thai 1080p
    Language : Thai
    Default : No
    Forced : No

    Text #2
    ID : 4
    Format : UTF-8
    Codec ID : S_TEXT/UTF8
    Codec ID/Info : UTF-8 Plain Text
    Duration : 1 h 28 min
    Bit rate : 134 b/s
    Count of elements : 1212
    Stream size : 87.2 KiB (0%)
    Title : Sub Thai SRT
    Language : Thai
    Default : No
    Forced : No

    Text #3
    ID : 5
    Format : PGS
    Muxing mode : zlib
    Codec ID : S_HDMV/PGS
    Codec ID/Info : Picture based subtitle format used on BDs/HD-DVDs
    Duration : 1 h 28 min
    Bit rate : 39.3 kb/s
    Count of elements : 2424
    Stream size : 24.8 MiB (1%)
    Title : Sub Thai PGS
    Language : Thai
    Default : Yes
    Forced : No

    Text #4
    ID : 6
    Format : UTF-8
    Codec ID : S_TEXT/UTF8
    Codec ID/Info : UTF-8 Plain Text
    Duration : 1 h 27 min
    Bit rate : 67 b/s
    Count of elements : 1260
    Stream size : 42.9 KiB (0%)
    Title : Sub English SRT
    Language : English
    Default : No
    Forced : No






    บรรยายไทย - อนันต์ โพธิสูง
    Download:filecondo
    Dual.2022.WebDL.mkv
    http://www.filecondo.com/dl.php?f=k9f2ed1NTOSR
    Dual.2022.1080p.WEBRip.DD5.1.x264TAYoo.mkv
    http://www.filecondo.com/dl.php?f=m988f41NTQWZ
    Dual_(2022).mkv
    http://www.filecondo.com/dl.php?f=Nae7041NTQUl
    Dual.2022.1080p.WEBRip.x264TAYoo.mkv
    http://www.filecondo.com/dl.php?f=c1caf21NTQYm

    Download:cornfile
    Dual.2022.WebDL.mkv - 1.5 GB
    Dual (2022).mkv - 4.3 GB
    Dual.2022.1080p.WEBRip.x264TAYoo.mkv - 1.8 GB
    Dual.2022.1080p.WEBRip.DD5.1.x264TAYoo.mkv - 6.9 GB

  2. The Following 2 Users Say Thank You to Duckload.us For This Useful Post:

    jackjangri (05-25-2022), noi54 (05-26-2022)

  3. #2
    I'm donate !
    สมัครเมื่อ
    Jun 2011
    โพสต์
    446
    Thanks
    601
    Thanked 40 Times in 29 Posts
    thankyou...

  4. #3
    Senior Member
    สมัครเมื่อ
    Jul 2013
    โพสต์
    3,350
    Thanks
    0
    Thanked 0 Times in 0 Posts
    ขอบคุณครับ

+ ตอบกลับกระทู้

ข้อมูลกระทู้

Users Browsing this Thread

ในขณะนี้มี 1 ท่านดูกระทู้อยู่. (0 สมาชิกและ 1 ผู้เยี่ยมชม)

     

กฎการโพสต์ข้อความ

  • ท่าน ไม่สามารถ ตั้งกระทู้ใหม่ได้
  • ท่าน ไม่สามารถ ตอบกระทู้ได้
  • ท่าน ไม่สามารถ แนบไฟล์ได้
  • ท่าน ไม่สามารถ แก้ไขข้อความโพสต์ได้
  • BB code สถานะ เปิด
  • Smilies สถานะ เปิด
  • [IMG] สถานะ เปิด
  • HTML สถานะ ปิด