+ ตอบกลับกระทู้
สรุปผลการค้นหา 1 ถึง 8 จากทั้งหมด 8
  1. #1
    Administrators รูปส่วนตัว Duckload.us
    สมัครเมื่อ
    Dec 2010
    โพสต์
    136,615
    Thanks
    7
    Thanked 141,466 Times in 62,004 Posts

    Thumbs up [ฝรั่ง] - Star Wars : Obi-Wan Kenobi (2022) Episode 01-06 END - 1080p.WEB-DL [ เสียงอังกฤษ 5.1 + พากย์ไทย 5.1 ] ● [ บรรยายไทย + อังกฤษ PGS,SRT ] จาก Disney+ Hotstar TH






    Format : Matroska
    Format version : Version 4
    File size : 1.93 GiB
    Duration : 38 min 42 s
    Overall bit rate mode : Variable
    Overall bit rate : 7 153 kb/s
    Encoded date : UTC 2022-05-27 05:12:19
    Writing application : mkvmerge v26.0.0 ('In The Game') 64-bit
    Writing library : libebml v1.3.6 + libmatroska v1.4.9

    Video
    ID : 1
    Format : AVC
    Format/Info : Advanced Video Codec
    Format profile : [email protected]
    Format settings : CABAC / 4 Ref Frames
    Format settings, CABAC : Yes
    Format settings, Reference : 4 frames
    Codec ID : V_MPEG4/ISO/AVC
    Duration : 38 min 42 s
    Bit rate mode : Variable
    Bit rate : 6 167 kb/s
    Maximum bit rate : 12.7 Mb/s
    Width : 1 920 pixels
    Height : 1 080 pixels
    Display aspect ratio : 16:9
    Frame rate mode : Constant
    Frame rate : 24.000 FPS
    Color space : YUV
    Chroma subsampling : 4:2:0
    Bit depth : 8 bits
    Scan type : Progressive
    Bits/(Pixel*Frame) : 0.124
    Stream size : 1.67 GiB (86%)
    Language : English
    Default : Yes
    Forced : No
    Color range : Limited
    Color primaries : BT.709
    Transfer characteristics : BT.709
    Matrix coefficients : BT.709

    Audio #1
    ID : 2
    Format : E-AC-3 JOC
    Format/Info : Enhanced AC-3 with Joint Object Coding
    Commercial name : Dolby Digital Plus with Dolby Atmos
    Codec ID : A_EAC3
    Duration : 38 min 42 s
    Bit rate mode : Constant
    Bit rate : 768 kb/s
    Channel(s) : 6 channels
    Channel layout : L R C LFE Ls Rs
    Sampling rate : 48.0 kHz
    Frame rate : 31.250 FPS (1536 SPF)
    Compression mode : Lossy
    Stream size : 213 MiB (11%)
    Title : English 5.1
    Language : English
    Service kind : Complete Main
    Default : No
    Forced : No
    Complexity index : 16
    Number of dynamic objects : 15
    Bed channel count : 1 channel
    Bed channel configuration : LFE

    Audio #2
    ID : 3
    Format : E-AC-3
    Format/Info : Enhanced AC-3
    Commercial name : Dolby Digital Plus
    Codec ID : A_EAC3
    Duration : 38 min 42 s
    Bit rate mode : Constant
    Bit rate : 192 kb/s
    Channel(s) : 6 channels
    Channel layout : L R C LFE Ls Rs
    Sampling rate : 48.0 kHz
    Frame rate : 31.250 FPS (1536 SPF)
    Compression mode : Lossy
    Stream size : 53.2 MiB (3%)
    Title : Thai 5.1
    Language : Thai
    Service kind : Complete Main
    Default : Yes
    Forced : No

    Text #1
    ID : 4
    Format : PGS
    Codec ID : S_HDMV/PGS
    Codec ID/Info : Picture based subtitle format used on BDs/HD-DVDs
    Duration : 34 min 26 s
    Bit rate : 26.5 kb/s
    Count of elements : 792
    Stream size : 6.53 MiB (0%)
    Title : Thai PGS
    Language : Thai
    Default : No
    Forced : No

    Text #2
    ID : 5
    Format : UTF-8
    Codec ID : S_TEXT/UTF8
    Codec ID/Info : UTF-8 Plain Text
    Duration : 38 min 31 s
    Bit rate : 99 b/s
    Count of elements : 397
    Stream size : 28.0 KiB (0%)
    Title : Thai SRT
    Language : Thai
    Default : No
    Forced : No

    Text #3
    ID : 6
    Format : UTF-8
    Codec ID : S_TEXT/UTF8
    Codec ID/Info : UTF-8 Plain Text
    Duration : 34 min 51 s
    Bit rate : 54 b/s
    Count of elements : 498
    Stream size : 14.0 KiB (0%)
    Title : English SRT
    Language : English
    Default : No
    Forced : No




    Download:filecondo
    1 http://www.filecondo.com/dl.php?f=qbf2c81NUxzR
    2 http://www.filecondo.com/dl.php?f=Xbf6d81NUxAJ
    3 http://www.filecondo.com/dl.php?f=O0d8761NX2hk
    4 http://www.filecondo.com/dl.php?f=A5ef941NYUYi
    5 http://www.filecondo.com/dl.php?f=Nf7cc81O1BWT
    6 http://www.filecondo.com/dl.php?f=A608261O3WHx

    Download:cornfile
    1 https://www.cornfile.com/74qjcj50m1jg
    2 https://www.cornfile.com/rsh8pc2os7eg
    3 https://www.cornfile.com/5lytxiv3v6h7
    4 https://www.cornfile.com/daxxdas7d7he
    5 https://www.cornfile.com/6qq5em6yztgv
    6 https://www.cornfile.com/efb6bas3aydu

  2. The Following 6 Users Say Thank You to Duckload.us For This Useful Post:

    jackjangri (05-27-2022), jangska (06-15-2022), neorun (05-27-2022), noi54 (06-01-2022), Wesker_TOT (05-28-2022), whiteherbie (06-22-2022)

  3. #2
    Junior Member
    สมัครเมื่อ
    Aug 2016
    โพสต์
    13
    Thanks
    0
    Thanked 0 Times in 0 Posts
    ขอบคุณครับ

  4. #3
    I'm donate !
    สมัครเมื่อ
    Jun 2011
    โพสต์
    446
    Thanks
    601
    Thanked 40 Times in 29 Posts
    ขอบคุณครับ

  5. #4
    Senior Member
    สมัครเมื่อ
    Dec 2013
    โพสต์
    3,725
    Thanks
    5,632
    Thanked 0 Times in 0 Posts
    ขอบคุณครับ...

  6. #5
    Senior Member รูปส่วนตัว gozilla02
    สมัครเมื่อ
    Jul 2012
    โพสต์
    268
    Thanks
    96
    Thanked 2 Times in 2 Posts
    ขอบคุณจ้า
    http://rabbitfileloveav.blogspot.com/ โหลดหนัง AV 18+ใหม่ล่าสุด อัพเดตทุกวัน มีทุกแนว 1080P Cornfile 10000 เรื่อง

  7. #6
    Senior Member
    สมัครเมื่อ
    Jul 2013
    โพสต์
    3,350
    Thanks
    0
    Thanked 0 Times in 0 Posts
    ขอบคุณครับ

  8. #7
    Junior Member
    สมัครเมื่อ
    Apr 2019
    โพสต์
    11
    Thanks
    4
    Thanked 0 Times in 0 Posts
    ขอบคุณค่ะ /\

  9. #8
    Senior Member
    สมัครเมื่อ
    Dec 2011
    โพสต์
    2,802
    Thanks
    355
    Thanked 0 Times in 0 Posts
    ขอบคุณมากค่ะ

+ ตอบกลับกระทู้

ข้อมูลกระทู้

Users Browsing this Thread

ในขณะนี้มี 1 ท่านดูกระทู้อยู่. (0 สมาชิกและ 1 ผู้เยี่ยมชม)

     

กฎการโพสต์ข้อความ

  • ท่าน ไม่สามารถ ตั้งกระทู้ใหม่ได้
  • ท่าน ไม่สามารถ ตอบกระทู้ได้
  • ท่าน ไม่สามารถ แนบไฟล์ได้
  • ท่าน ไม่สามารถ แก้ไขข้อความโพสต์ได้
  • BB code สถานะ เปิด
  • Smilies สถานะ เปิด
  • [IMG] สถานะ เปิด
  • HTML สถานะ ปิด