+ ตอบกลับกระทู้
สรุปผลการค้นหา 1 ถึง 8 จากทั้งหมด 8
  1. #1
    Administrators รูปส่วนตัว Duckload.us
    สมัครเมื่อ
    Dec 2010
    โพสต์
    136,615
    Thanks
    7
    Thanked 141,466 Times in 62,004 Posts

    Thumbs up [ฝรั่ง]-[NETFLIX]Stranger Things Season 4 part 1-WEB-DL.H.264.1080p. [Master]-[พากย์ไทย บรรยายไทย]



    ลางร้ายกลับมาเยือนเมืองฮอว์กินส์อีกครั้งในช่วงปิดเ ทอมฤดูใบไม้ผลิ ซึ่งนำไปสู่การผจญภัยครั้งใหม่ ที่ชวนหวาดผวา ความทรงจำอันน่าสะพรึงกลัว และสงครามที่คืบคลานใกล้เข้ามา

    Format : Matroska
    Format version : Version 4
    File size : 4.56 GiB
    Duration : 1 h 18 min
    Overall bit rate mode : Variable
    Overall bit rate : 8 362 kb/s
    Movie name : บทที่ 1: เฮลไฟร์คลับ
    Description : แอลตกเป็นเป้านิ่งให้นักเรียนที่โรงเรียนใหม่กลั่นแก ล้งและไม่อาจตอบโต้ จอยซ์ได้รับพัสดุลึกลับ ส่วนผู้เล่นขาลุยมาสร้างปรากฏการณ์ให้คืนนัดเล่นดันเ จียนแอนด์ดรากอนในฮอว์กินส์
    Writing application : Lavf58.29.100
    Writing library : Lavf58.29.100
    ErrorDetectionType : Per level 1
    Attachments : https://occ-0-1588-64.1.nflxso.net/d...thMU.jpg?r=57e
    DATE : 2022
    EPISODE_ID : 1
    SEASON_NUMBER : 4
    SHOW : สเตรนเจอร์ ธิงส์

    Video
    ID : 1
    Format : AVC
    Format/Info : Advanced Video Codec
    Format profile : [email protected]
    Format settings : CABAC / 1 Ref Frames
    Format settings, CABAC : Yes
    Format settings, Reference frames : 1 frame
    Codec ID : V_MPEG4/ISO/AVC
    Duration : 1 h 18 min
    Bit rate mode : Variable
    Maximum bit rate : 6 000 kb/s
    Width : 1 920 pixels
    Height : 1 080 pixels
    Display aspect ratio : 16:9
    Frame rate mode : Constant
    Frame rate : 23.976 (24000/1001) FPS
    Color space : YUV
    Chroma subsampling : 4:2:0
    Bit depth : 8 bits
    Scan type : Progressive
    Default : No
    Forced : No

    Audio #1
    ID : 2
    Format : E-AC-3
    Format/Info : Enhanced AC-3
    Commercial name : Dolby Digital Plus
    Codec ID : A_EAC3
    Duration : 1 h 18 min
    Bit rate mode : Constant
    Bit rate : 640 kb/s
    Channel(s) : 6 channels
    Channel layout : L R C LFE Ls Rs
    Sampling rate : 48.0 kHz
    Frame rate : 31.250 FPS (1536 SPF)
    Bit depth : 32 bits
    Compression mode : Lossy
    Delay relative to video : -83 ms
    Stream size : 358 MiB (8%)
    Title : อังกฤษ - คำอธิบายเสียง
    Language : English
    Service kind : Complete Main
    Default : No
    Forced : No

    Audio #2
    ID : 3
    Format : E-AC-3
    Format/Info : Enhanced AC-3
    Commercial name : Dolby Digital Plus
    Codec ID : A_EAC3
    Duration : 1 h 18 min
    Bit rate mode : Constant
    Bit rate : 640 kb/s
    Channel(s) : 6 channels
    Channel layout : L R C LFE Ls Rs
    Sampling rate : 48.0 kHz
    Frame rate : 31.250 FPS (1536 SPF)
    Bit depth : 32 bits
    Compression mode : Lossy
    Delay relative to video : -83 ms
    Stream size : 358 MiB (8%)
    Title : อังกฤษ [ต้นฉบับ]
    Language : English
    Service kind : Complete Main
    Default : No
    Forced : No

    Audio #3
    ID : 4
    Format : E-AC-3
    Format/Info : Enhanced AC-3
    Commercial name : Dolby Digital Plus
    Codec ID : A_EAC3
    Duration : 1 h 18 min
    Bit rate mode : Constant
    Bit rate : 640 kb/s
    Channel(s) : 6 channels
    Channel layout : L R C LFE Ls Rs
    Sampling rate : 48.0 kHz
    Frame rate : 31.250 FPS (1536 SPF)
    Bit depth : 32 bits
    Compression mode : Lossy
    Delay relative to video : -83 ms
    Stream size : 358 MiB (8%)
    Title : ไทย
    Language : Thai
    Service kind : Complete Main
    Default : Yes
    Forced : No

    Audio #4
    ID : 5
    Format : AAC LC SBR
    Format/Info : Advanced Audio Codec Low Complexity with Spectral Band Replication
    Commercial name : HE-AAC
    Format settings : Explicit
    Codec ID : A_AAC-2
    Duration : 1 h 18 min
    Channel(s) : 6 channels
    Channel layout : C L R Ls Rs LFE
    Sampling rate : 48.0 kHz
    Frame rate : 23.438 FPS (2048 SPF)
    Compression mode : Lossy
    Delay relative to video : -83 ms
    Title : อังกฤษ - คำอธิบายเสียง
    Language : English
    Default : No
    Forced : No

    Audio #5
    ID : 6
    Format : E-AC-3
    Format/Info : Enhanced AC-3
    Commercial name : Dolby Digital Plus
    Codec ID : A_EAC3
    Duration : 1 h 18 min
    Bit rate mode : Constant
    Bit rate : 192 kb/s
    Channel(s) : 6 channels
    Channel layout : L R C LFE Ls Rs
    Sampling rate : 48.0 kHz
    Frame rate : 31.250 FPS (1536 SPF)
    Bit depth : 32 bits
    Compression mode : Lossy
    Delay relative to video : -83 ms
    Stream size : 107 MiB (2%)
    Title : อังกฤษ - คำอธิบายเสียง
    Language : English
    Service kind : Complete Main
    Default : No
    Forced : No

    Audio #6
    ID : 7
    Format : AAC LC SBR
    Format/Info : Advanced Audio Codec Low Complexity with Spectral Band Replication
    Commercial name : HE-AAC
    Format settings : Explicit
    Codec ID : A_AAC-2
    Duration : 1 h 18 min
    Channel(s) : 6 channels
    Channel layout : C L R Ls Rs LFE
    Sampling rate : 48.0 kHz
    Frame rate : 23.438 FPS (2048 SPF)
    Compression mode : Lossy
    Delay relative to video : -83 ms
    Title : อังกฤษ [ต้นฉบับ]
    Language : English
    Default : No
    Forced : No

    Audio #7
    ID : 8
    Format : E-AC-3
    Format/Info : Enhanced AC-3
    Commercial name : Dolby Digital Plus
    Codec ID : A_EAC3
    Duration : 1 h 18 min
    Bit rate mode : Constant
    Bit rate : 192 kb/s
    Channel(s) : 6 channels
    Channel layout : L R C LFE Ls Rs
    Sampling rate : 48.0 kHz
    Frame rate : 31.250 FPS (1536 SPF)
    Bit depth : 32 bits
    Compression mode : Lossy
    Delay relative to video : -83 ms
    Stream size : 107 MiB (2%)
    Title : อังกฤษ [ต้นฉบับ]
    Language : English
    Service kind : Complete Main
    Default : No
    Forced : No

    Audio #8
    ID : 9
    Format : AAC LC SBR
    Format/Info : Advanced Audio Codec Low Complexity with Spectral Band Replication
    Commercial name : HE-AAC
    Format settings : Explicit
    Codec ID : A_AAC-2
    Duration : 1 h 18 min
    Channel(s) : 6 channels
    Channel layout : C L R Ls Rs LFE
    Sampling rate : 48.0 kHz
    Frame rate : 23.438 FPS (2048 SPF)
    Compression mode : Lossy
    Delay relative to video : -83 ms
    Title : ไทย
    Language : Thai
    Default : Yes
    Forced : No

    Audio #9
    ID : 10
    Format : E-AC-3
    Format/Info : Enhanced AC-3
    Commercial name : Dolby Digital Plus
    Codec ID : A_EAC3
    Duration : 1 h 18 min
    Bit rate mode : Constant
    Bit rate : 192 kb/s
    Channel(s) : 6 channels
    Channel layout : L R C LFE Ls Rs
    Sampling rate : 48.0 kHz
    Frame rate : 31.250 FPS (1536 SPF)
    Bit depth : 32 bits
    Compression mode : Lossy
    Delay relative to video : -83 ms
    Stream size : 107 MiB (2%)
    Title : ไทย
    Language : Thai
    Service kind : Complete Main
    Default : Yes
    Forced : No

    Audio #10
    ID : 11
    Format : AAC LC SBR
    Format/Info : Advanced Audio Codec Low Complexity with Spectral Band Replication
    Commercial name : HE-AAC
    Format settings : Explicit
    Codec ID : A_AAC-2
    Duration : 1 h 18 min
    Channel(s) : 2 channels
    Channel layout : L R
    Sampling rate : 48.0 kHz
    Frame rate : 23.438 FPS (2048 SPF)
    Compression mode : Lossy
    Delay relative to video : -83 ms
    Title : อังกฤษ [ต้นฉบับ]
    Language : English
    Default : No
    Forced : No

    Audio #11
    ID : 12
    Format : AAC LC SBR
    Format/Info : Advanced Audio Codec Low Complexity with Spectral Band Replication
    Commercial name : HE-AAC
    Format settings : Explicit
    Codec ID : A_AAC-2
    Duration : 1 h 18 min
    Channel(s) : 2 channels
    Channel layout : L R
    Sampling rate : 48.0 kHz
    Frame rate : 23.438 FPS (2048 SPF)
    Compression mode : Lossy
    Delay relative to video : -83 ms
    Title : อังกฤษ - คำอธิบายเสียง
    Language : English
    Default : No
    Forced : No

    Audio #12
    ID : 13
    Format : AAC LC SBR
    Format/Info : Advanced Audio Codec Low Complexity with Spectral Band Replication
    Commercial name : HE-AAC
    Format settings : Explicit
    Codec ID : A_AAC-2
    Duration : 1 h 18 min
    Channel(s) : 2 channels
    Channel layout : L R
    Sampling rate : 48.0 kHz
    Frame rate : 23.438 FPS (2048 SPF)
    Compression mode : Lossy
    Delay relative to video : -83 ms
    Title : ไทย
    Language : Thai
    Default : No
    Forced : No

    Audio #13
    ID : 14
    Format : AAC LC SBR
    Format/Info : Advanced Audio Codec Low Complexity with Spectral Band Replication
    Commercial name : HE-AAC
    Format settings : Explicit
    Codec ID : A_AAC-2
    Duration : 1 h 18 min
    Channel(s) : 2 channels
    Channel layout : L R
    Sampling rate : 48.0 kHz
    Frame rate : 23.438 FPS (2048 SPF)
    Compression mode : Lossy
    Delay relative to video : -83 ms
    Title : อังกฤษ [ต้นฉบับ]
    Language : English
    Default : No
    Forced : No

    Audio #14
    ID : 15
    Format : AAC LC SBR
    Format/Info : Advanced Audio Codec Low Complexity with Spectral Band Replication
    Commercial name : HE-AAC
    Format settings : Explicit
    Codec ID : A_AAC-2
    Duration : 1 h 18 min
    Channel(s) : 2 channels
    Channel layout : L R
    Sampling rate : 48.0 kHz
    Frame rate : 23.438 FPS (2048 SPF)
    Compression mode : Lossy
    Delay relative to video : -83 ms
    Title : อังกฤษ - คำอธิบายเสียง
    Language : English
    Default : No
    Forced : No

    Audio #15
    ID : 16
    Format : AAC LC SBR
    Format/Info : Advanced Audio Codec Low Complexity with Spectral Band Replication
    Commercial name : HE-AAC
    Format settings : Explicit
    Codec ID : A_AAC-2
    Duration : 1 h 18 min
    Channel(s) : 2 channels
    Channel layout : L R
    Sampling rate : 48.0 kHz
    Frame rate : 23.438 FPS (2048 SPF)
    Compression mode : Lossy
    Delay relative to video : -83 ms
    Title : ไทย
    Language : Thai
    Default : No
    Forced : No

    Text #1
    ID : 17
    Format : VobSub
    Codec ID : S_VOBSUB
    Codec ID/Info : Picture based subtitle format used on DVDs
    Duration : 1 h 15 min
    Title : Thai
    Language : Thai
    Default : No
    Forced : No

    Text #2
    ID : 18
    Format : ASS
    Codec ID : S_TEXT/ASS
    Codec ID/Info : Advanced Sub Station Alpha
    Duration : 1 h 15 min
    Compression mode : Lossless
    Title : Thai
    Language : Thai
    Default : No
    Forced : No

    Text #3
    ID : 19
    Format : ASS
    Codec ID : S_TEXT/ASS
    Codec ID/Info : Advanced Sub Station Alpha
    Duration : 1 h 13 min
    Compression mode : Lossless
    Title : English (CC)
    Language : English
    Default : No
    Forced : No

    Text #4
    ID : 20
    Format : VobSub
    Codec ID : S_VOBSUB
    Codec ID/Info : Picture based subtitle format used on DVDs
    Duration : 1 h 15 min
    Title : Thai (Forced Narrative)
    Language : Thai
    Default : No
    Forced : No

    Text #5
    ID : 21
    Format : ASS
    Codec ID : S_TEXT/ASS
    Codec ID/Info : Advanced Sub Station Alpha
    Duration : 1 h 15 min
    Compression mode : Lossless
    Title : Thai (Forced Narrative)
    Language : Thai
    Default : No
    Forced : No




    Download:filecondo
    สเตรนเจอร์_ธิงส์_S04E07_บทที่_7__การสังหารที่ห้องแ ล็บฮอว์กินส์.mkv
    http://www.filecondo.com/dl.php?f=D712aa1NUPuh

    สเตรนเจอร์_ธิงส์_S04E06_บทที่_6__ดำดิ่ง.mkv
    http://www.filecondo.com/dl.php?f=1cdeda1NUPtc

    สเตรนเจอร์_ธิงส์_S04E05_บทที่_5__นีน่าโปรเจกต์.mkv
    http://www.filecondo.com/dl.php?f=44ec7e1NUPsn

    สเตรนเจอร์_ธิงส์_S04E04_บทที่_4__ถึงบิลลี่.mkv
    http://www.filecondo.com/dl.php?f=qe0da81NUPrz

    สเตรนเจอร์_ธิงส์_S04E03_บทที่_3__สัตว์ประหลาดและยอ ดมนุษย์.mkv
    http://www.filecondo.com/dl.php?f=820e561NUPq3

    สเตรนเจอร์_ธิงส์_S04E02_บทที่_2__คำสาปของเว็คนา.mk v
    http://www.filecondo.com/dl.php?f=7789ae1NUPou

    สเตรนเจอร์_ธิงส์_S04E01_บทที่_1__เฮลไฟร์คลับ.mkv
    http://www.filecondo.com/dl.php?f=Hb13101NUPlp

    Download:cornfile
    สเตรนเจอร์ ธิงส์ 4.zip - 27.9 GB




    [ฝรั่ง]-[* NETFLIX *] Stranger Things (2016-2019) : สเตรนเจอร์ ธิงส์ - Season 1-3 [เสียงไทย 5.1 + เสียงอังกฤษ 5.1] [บรรยายไทย + อังกฤษ] [เสียง + ซับไทย Master From Netflix + ซับ SRT , PGS]-WEB-DL.H.264.1080p. [Hi-def rip from Master]-[พากย์ไทย บรรยาย

  2. The Following 3 Users Say Thank You to Duckload.us For This Useful Post:

    jackjangri (05-28-2022), neorun (05-28-2022), Wesker_TOT (05-29-2022)

  3. #2
    Junior Member
    สมัครเมื่อ
    Oct 2015
    โพสต์
    28
    Thanks
    0
    Thanked 0 Times in 0 Posts
    มาแล้ววว ขอบคุณครับ

  4. #3
    I'm donate !
    สมัครเมื่อ
    Jun 2011
    โพสต์
    446
    Thanks
    601
    Thanked 40 Times in 29 Posts
    thankyou...

  5. #4
    Senior Member
    สมัครเมื่อ
    Dec 2013
    โพสต์
    3,725
    Thanks
    5,632
    Thanked 0 Times in 0 Posts
    ขอบคุณครับ...

  6. #5
    Senior Member
    สมัครเมื่อ
    Jul 2013
    โพสต์
    3,350
    Thanks
    0
    Thanked 0 Times in 0 Posts
    ขอบคุณครับ

  7. #6
    Member
    สมัครเมื่อ
    Nov 2021
    โพสต์
    43
    Thanks
    0
    Thanked 0 Times in 0 Posts
    ขอบคุณครับ

  8. #7
    Senior Member
    สมัครเมื่อ
    Jul 2012
    โพสต์
    7,979
    Thanks
    0
    Thanked 0 Times in 0 Posts
    ขอบคุณมากจ้า

  9. #8
    Senior Member
    สมัครเมื่อ
    Dec 2013
    โพสต์
    639
    Thanks
    586
    Thanked 0 Times in 0 Posts
    ขอบคุณครับบบ

+ ตอบกลับกระทู้

ข้อมูลกระทู้

Users Browsing this Thread

ในขณะนี้มี 1 ท่านดูกระทู้อยู่. (0 สมาชิกและ 1 ผู้เยี่ยมชม)

     

กฎการโพสต์ข้อความ

  • ท่าน ไม่สามารถ ตั้งกระทู้ใหม่ได้
  • ท่าน ไม่สามารถ ตอบกระทู้ได้
  • ท่าน ไม่สามารถ แนบไฟล์ได้
  • ท่าน ไม่สามารถ แก้ไขข้อความโพสต์ได้
  • BB code สถานะ เปิด
  • Smilies สถานะ เปิด
  • [IMG] สถานะ เปิด
  • HTML สถานะ ปิด