+ ตอบกลับกระทู้
สรุปผลการค้นหา 1 ถึง 6 จากทั้งหมด 6
  1. #1
    Administrators รูปส่วนตัว Duckload.us
    สมัครเมื่อ
    Dec 2010
    โพสต์
    136,463
    Thanks
    7
    Thanked 141,233 Times in 61,924 Posts

    Thumbs up [ฝรั่ง]-[AMZN] The Boys (2022) ก๊วนหนุ่มซ่าล่าซูเปอร์ฮีโร่ Season 3 EP.1-6 [เสียง:อังกฤษ AC-3 5.1][บรรยาย: ไทย PGS และ ไทย/อังกฤษ SRT]-WEB-DL.H.264.1080p. [From HD-TV]-[Soundtrack บรรยายไทย]






    ตอนที่ 3 บาร์บารี โคสต์
    คืนนี้เวลาสามทุ่ม/สองทุ่มตามเวลามาตรฐานตอนกลางในช่องวอทพลัส พบกับตอนสุดท้ายประจำซีซัน #วีรบุรุษอเมริกัน! ยังเหลือผู้เข้าแข่งขันสามคน แต่มีสองคนเท่านั้นที่จะได้เข้าร่วมกับ #เดอะเซเว่น สตาร์ไลต์จะเลือกถ่านไฟเก่าอย่างซูเปอร์โซนิคหรือไม่ หรือคนอื่นจะได้ย้ายเข้ามาเป็นสมาชิกใหม่ของเซเว่น ทาวเวอร์ พบกันคืนนี้กับซีรีส์ตอนจบสุดช็อก นำเสนอโดยลีน เลดี้ โฟรเซน ดินเนอร์ส โดยวอท: ซูเปอร์ความผอมเพรียวแสนอร่อย!

    Video
    ID : 1
    Format : AVC
    Format/Info : Advanced Video Codec
    Format profile : [email protected]
    Format settings, CABAC : Yes
    Format settings, RefFrames : 4 frames
    Codec ID : V_MPEG4/ISO/AVC
    Duration : 1 h 1 min
    Bit rate mode : Constant
    Bit rate : 8 580 kb/s
    Nominal bit rate : 10 000 kb/s
    Width : 1 920 pixels
    Height : 1 080 pixels
    Display aspect ratio : 16:9
    Frame rate mode : Constant
    Frame rate : 23.976 (24000/1001) FPS
    Color space : YUV
    Chroma subsampling : 4:2:0
    Bit depth : 8 bits
    Scan type : Progressive
    Bits/(Pixel*Frame) : 0.173
    Stream size : 3.71 GiB (93%)
    Default : Yes
    Forced : No
    Color range : Limited
    Color primaries : BT.709
    Transfer characteristics : BT.709
    Matrix coefficients : BT.709

    Audio
    ID : 2
    Format : E-AC-3
    Format/Info : Enhanced Audio Coding 3
    Format settings, Endianness : Big
    Codec ID : A_EAC3
    Duration : 1 h 1 min
    Bit rate mode : Constant
    Bit rate : 640 kb/s
    Channel(s) : 6 channels
    Channel positions : Front: L C R, Side: L R, LFE
    Sampling rate : 48.0 kHz
    Frame rate : 187.500 FPS (256 SPF)
    Compression mode : Lossy
    Stream size : 284 MiB (7%)
    Title : [English-AC-3]
    Language : English
    Service kind : Complete Main
    Default : Yes
    Forced : No

    Text #1
    ID : 3
    Format : PGS
    Muxing mode : zlib
    Codec ID : S_HDMV/PGS
    Codec ID/Info : Picture based subtitle format used on BDs/HD-DVDs
    Duration : 1 h 0 min
    Bit rate : 62.0 kb/s
    Count of elements : 1572
    Stream size : 26.7 MiB (1%)
    Title : Thai PGS
    Language : Thai
    Default : Yes
    Forced : No

    Text #2
    ID : 4
    Format : UTF-8
    Codec ID : S_TEXT/UTF8
    Codec ID/Info : UTF-8 Plain Text
    Duration : 1 h 0 min
    Bit rate : 152 b/s
    Count of elements : 786
    Stream size : 67.2 KiB (0%)
    Title : Thai
    Language : Thai
    Default : No
    Forced : No

    Text #3
    ID : 5
    Format : UTF-8
    Codec ID : S_TEXT/UTF8
    Codec ID/Info : UTF-8 Plain Text
    Duration : 1 s 418 ms
    Bit rate : 56 b/s
    Count of elements : 1
    Stream size : 10.0 Bytes (0%)
    Title : English [Forced]
    Language : English
    Default : No
    Forced : No

    Text #4
    ID : 6
    Format : UTF-8
    Codec ID : S_TEXT/UTF8
    Codec ID/Info : UTF-8 Plain Text
    Duration : 1 h 0 min
    Bit rate : 79 b/s
    Count of elements : 1221
    Stream size : 35.0 KiB (0%)
    Title : English [SDH]
    Language : English
    Default : No
    Forced : No


    Download:filecondo
    1 http://www.filecondo.com/dl.php?f=3cdcea1NX2ii
    2 http://www.filecondo.com/dl.php?f=Z230461NX2lD
    3 http://www.filecondo.com/dl.php?f=E71d251NX2pl
    4 http://www.filecondo.com/dl.php?f=kf05111NZzkA
    5 http://www.filecondo.com/dl.php?f=L56c941O28iD
    6 http://www.filecondo.com/dl.php?f=B1f5971O4BFv

    Download:cornfile
    1 https://www.cornfile.com/0sh8hfmg1q1p
    2 https://www.cornfile.com/rsp6ttwgeag0
    3 https://www.cornfile.com/8qyengo2bgmd
    4 https://www.cornfile.com/bll2zuwwkay8
    5 https://www.cornfile.com/rxfstcr4mt0h
    6 https://www.cornfile.com/u9j9pdmhedw7

  2. The Following 5 Users Say Thank You to Duckload.us For This Useful Post:

    bumpkinboy (06-19-2022), jackjangri (06-11-2022), kappa (06-11-2022), neorun (06-18-2022), Wesker_TOT (06-12-2022)

  3. #2
    Senior Member รูปส่วนตัว Abuzayas47
    สมัครเมื่อ
    Apr 2020
    โพสต์
    176
    Thanks
    0
    Thanked 0 Times in 0 Posts
    ขอบคุณครับ

  4. #3
    I'm donate !
    สมัครเมื่อ
    Jun 2011
    โพสต์
    440
    Thanks
    595
    Thanked 40 Times in 29 Posts
    ขอบคุณครับ

  5. #4
    Senior Member
    สมัครเมื่อ
    Dec 2013
    โพสต์
    3,698
    Thanks
    5,604
    Thanked 0 Times in 0 Posts
    ขอบคุณครับ...

  6. #5
    Junior Member รูปส่วนตัว theoat1993
    สมัครเมื่อ
    Sep 2021
    โพสต์
    3
    Thanks
    0
    Thanked 0 Times in 0 Posts
    ทำไม Filecondo โหลดไม่ได้หละเนี่ย

  7. #6
    Member
    สมัครเมื่อ
    Nov 2014
    โพสต์
    67
    Thanks
    4
    Thanked 0 Times in 0 Posts
    Filecondo ยังโหลดไม่ได้

    ช่วยup cornfile ได้มั้ยครับ?

+ ตอบกลับกระทู้

ข้อมูลกระทู้

Users Browsing this Thread

ในขณะนี้มี 16 ท่านดูกระทู้อยู่. (0 สมาชิกและ 16 ผู้เยี่ยมชม)

     

กฎการโพสต์ข้อความ

  • ท่าน ไม่สามารถ ตั้งกระทู้ใหม่ได้
  • ท่าน ไม่สามารถ ตอบกระทู้ได้
  • ท่าน ไม่สามารถ แนบไฟล์ได้
  • ท่าน ไม่สามารถ แก้ไขข้อความโพสต์ได้
  • BB code สถานะ เปิด
  • Smilies สถานะ เปิด
  • [IMG] สถานะ เปิด
  • HTML สถานะ ปิด