+ ตอบกลับกระทู้
สรุปผลการค้นหา 1 ถึง 3 จากทั้งหมด 3
  1. #1
    Administrators รูปส่วนตัว Duckload.us
    สมัครเมื่อ
    Dec 2010
    โพสต์
    136,553
    Thanks
    7
    Thanked 141,368 Times in 61,965 Posts

    Thumbs up [ฝรั่ง] Father Stu (2022) บาทหลวงกำปั้นเหล็ก [พากย์:อังกฤษ/ไทย มาสเตอร์][SUB:ไทย/อังกฤษ][1080p]



    ภาพยนตร์เรื่องนี้สร้างจากเรื่องจริง Father Stu เป็นเรื่องราวซื่อตรงขวานผ่าซาก ตลกขบขันและสร้างขวัญกำลังใจเกี่ยวกับการหาความหมายข องชีวิตในที่ที่คาดไม่ถึงที่สุด หลังรอดจากอุบัติเหตุมอเตอร์ไซค์ร้ายแรง สจ๊วต ลอง (มาร์ค วอห์ลเบิร์ก) ก็สงสัยว่าเขาจะใช้โอกาสที่สองนี้เพื่อช่วยผู้คนหาเส ้นทางชีวิตได้หรือไม่ และมันก็ทำให้อดีตนักมวยสมัครเล่นคนนี้รับรู้ถึงสิ่ง ที่น่าประหลาดใจว่าเขานั้นเกิดมาเพื่อเป็นบาทหลวง ถึงแม้จะพบกับปัญหาสุขภาพที่เลวร้ายและความสงสัยจากผ ู้คนในโบสถ์และพ่อแม่ที่หย่าร้างของเขา (เมล กิบสันและแจ็คกี้ วีฟเวอร์) สตูก็ยังมุ่งทำหน้าที่ด้วยความกล้าหาญและเห็นอกเห็นใ จ ซึ่งไม่ได้สร้างแรงใจให้กับคนใกล้ชิดเขาเท่านั้น แต่กับผู้คนนับไม่ถ้วนระหว่างทางด้วย

    Format : Matroska
    Format version : Version 4
    File size : 4.52 GiB
    Duration : 2 h 4 min
    Overall bit rate : 5 197 kb/s
    Movie name : Father.Stu.2022.1080p.WEB-DL.DDP5.1.H.264_©GOLD CUP™_WWW.TT-TORRENT.COM

    Video
    ID : 1
    Format : AVC
    Format/Info : Advanced Video Codec
    Format profile : [email protected]
    Format settings : CABAC / 2 Ref Frames
    Format settings, CABAC : Yes
    Format settings, Reference : 2 frames
    Codec ID : V_MPEG4/ISO/AVC
    Duration : 2 h 4 min
    Bit rate : 4 377 kb/s
    Width : 1 920 pixels
    Height : 1 080 pixels
    Display aspect ratio : 16:9
    Frame rate mode : Constant
    Frame rate : 23.976 (24000/1001) FPS
    Color space : YUV
    Chroma subsampling : 4:2:0
    Bit depth : 8 bits
    Scan type : Progressive
    Bits/(Pixel*Frame) : 0.088
    Stream size : 3.81 GiB (84%)
    Writing library : x264 core 155 r2901 7d0ff22
    Language : English
    Default : Yes
    Forced : No
    Color range : Limited
    Color primaries : BT.709
    Transfer characteristics : BT.709
    Matrix coefficients : BT.709

    Audio #1
    ID : 2
    Format : E-AC-3
    Format/Info : Enhanced AC-3
    Commercial name : Dolby Digital Plus
    Codec ID : A_EAC3
    Duration : 2 h 4 min
    Bit rate mode : Constant
    Bit rate : 384 kb/s
    Channel(s) : 6 channels
    Channel layout : L R C LFE Ls Rs
    Sampling rate : 48.0 kHz
    Frame rate : 31.250 FPS (1536 SPF)
    Compression mode : Lossy
    Stream size : 342 MiB (7%)
    Title : En.AC3_384 kbs.6 channels: Dolby Digital Plus
    Language : English
    Service kind : Complete Main
    Default : Yes
    Forced : No

    Audio #2
    ID : 3
    Format : AAC LC
    Format/Info : Advanced Audio Codec Low Complexity
    Codec ID : A_AAC-2
    Duration : 2 h 4 min
    Bit rate : 384 kb/s
    Channel(s) : 6 channels
    Channel layout : C L R Ls Rs LFE
    Sampling rate : 48.0 kHz
    Frame rate : 46.875 FPS (1024 SPF)
    Compression mode : Lossy
    Stream size : 343 MiB (7%)
    Title : Th.AAC_384 kbs.6 channels
    Language : Thai
    Default : Yes
    Forced : No

    Text #1
    ID : 4
    Format : PGS
    Muxing mode : zlib
    Codec ID : S_HDMV/PGS
    Codec ID/Info : Picture based subtitle format used on BDs/HD-DVDs
    Duration : 2 h 1 min
    Bit rate : 40.9 kb/s
    Count of elements : 3088
    Stream size : 35.6 MiB (1%)
    Title : Th.3.100.90.White
    Language : Thai
    Default : No
    Forced : No

    Text #2
    ID : 5
    Format : PGS
    Muxing mode : zlib
    Codec ID : S_HDMV/PGS
    Codec ID/Info : Picture based subtitle format used on BDs/HD-DVDs
    Duration : 2 h 2 min
    Bit rate : 49.5 kb/s
    Count of elements : 4128
    Stream size : 43.5 MiB (1%)
    Title : EN.110.3.83.Yellow
    Language : English
    Default : No
    Forced : No





    Download:filecondo
    http://www.filecondo.com/dl.php?f=rc4ed01NZmO3
    Download:cornfile
    https://www.cornfile.com/wowt6puj4kve

  2. The Following 2 Users Say Thank You to Duckload.us For This Useful Post:

    jackjangri (06-11-2022), noi54 (06-15-2022)

  3. #2
    I'm donate !
    สมัครเมื่อ
    Jun 2011
    โพสต์
    442
    Thanks
    597
    Thanked 40 Times in 29 Posts
    thank you...

  4. #3
    Senior Member
    สมัครเมื่อ
    Jul 2013
    โพสต์
    3,335
    Thanks
    0
    Thanked 0 Times in 0 Posts
    ขอบคุณครับ

+ ตอบกลับกระทู้

ข้อมูลกระทู้

Users Browsing this Thread

ในขณะนี้มี 1 ท่านดูกระทู้อยู่. (0 สมาชิกและ 1 ผู้เยี่ยมชม)

     

กฎการโพสต์ข้อความ

  • ท่าน ไม่สามารถ ตั้งกระทู้ใหม่ได้
  • ท่าน ไม่สามารถ ตอบกระทู้ได้
  • ท่าน ไม่สามารถ แนบไฟล์ได้
  • ท่าน ไม่สามารถ แก้ไขข้อความโพสต์ได้
  • BB code สถานะ เปิด
  • Smilies สถานะ เปิด
  • [IMG] สถานะ เปิด
  • HTML สถานะ ปิด