+ ตอบกลับกระทู้
สรุปผลการค้นหา 1 ถึง 2 จากทั้งหมด 2
  1. #1
    Administrators รูปส่วนตัว Duckload.us
    สมัครเมื่อ
    Dec 2010
    โพสต์
    136,553
    Thanks
    7
    Thanked 141,365 Times in 61,965 Posts

    Thumbs up [ฝรั่ง]-[NETFLIX] CODA (2021) -WEB-DL.EAC-3.1080p. [Netflix (web-dl)]-[พากย์อังกฤษ 2.0 ไทย 2.0 บรรยายไทย (Master)-อังกฤษ]




    รูบี้ รอสซี่ (เอมิเลีย โจนส์) เด็กสาวมัธยมธรรมดา ๆ ที่โตมาในครอบครัวที่พ่อแม่และพี่ชายหูหนวก ทุกวันของเธอเริ่มตอนตี 3 เธอต้องรีบตื่นแล้วไปทำหน้าที่เป็นกลาสีบนดาดฟ้าเรือ หาปลาของครอบครัว ร่วมกับพี่ชาย ลีโอ แดเนียล ดูแรนท์) ผู้ที่หูหนวกเช่นเดียวกับพ่อแม่ รูบี้ ยังทำหน้าที่เป็นล่ามประจำครอบครัว และยังคอยปกป้อง แฟรงค์ (ทรอย คอตเซอร์) ผู้เป็นพ่อ และแจ็คกี้ (มาร์ลี แมตลิน) ผู้เป็นแม่ ความสุขหนึ่งเดียวที่ช่วยปลดปล่อยเธอจากทุกอย่าง นั่นคือการได้ร้องเพลงบนดาดฟ้าเรือแบบสุดเสียง ด้วยความหวังว่าจะได้ใกล้ชิดกับ ไมลส์ (เฟอร์เดีย วอลช์-พีโล) ชายหนุ่มที่เธอชื่นชอบ รูบี้ จึงสมัครเข้าร่วมวงร้องประสานเสียง ก่อนพบว่าเธอเข้ากันได้ดีกับครูสอนวิชาดนตรีอย่าง เบอร์นาโด วิลลาโลโบส (ยูจินีโอ เดอร์เบซ) ผู้ที่ เจอความสามารถที่แฝงอยู่ของ รูบี้ เขาจึงต้องการช่วยให้เธอได้แสดงศักยภาพที่มีอยู่ออกม าอย่างเต็มที่ ด้วยการขอทุนจากสถาบันดนตรีเบิร์กลี่ย์ให้แต่ด้วยควา มกลัวในอนาคต และความลังเลในโอกาสที่ได้รับ อีกทั้งครอบครัวกำลังประสบปัญหาทางการเงิน รูบี้ ต้องตัดสินใจว่า จะเดินตามความฝันของตัวเอง หรืออยู่เติมเต็มครอบครัวของเธอในโลกที่ไร้เสียง


    Format : Matroska
    Format version : Version 4
    File size : 4.24 GiB
    Duration : 1 h 47 min
    Overall bit rate : 5 667 kb/s
    Encoded date : UTC 2022-06-11 04:14:22
    Writing application : mkvmerge v55.0.0 ('Waiting For Space') 64-bit
    Writing library : libebml v1.4.2 + libmatroska v1.6.4

    Video
    ID : 1
    Format : AVC
    Format/Info : Advanced Video Codec
    Format profile : [email protected]
    Format settings : CABAC / 3 Ref Frames
    Format settings, CABAC : Yes
    Format settings, Reference : 3 frames
    Codec ID : V_MPEG4/ISO/AVC
    Duration : 1 h 47 min
    Bit rate : 5 352 kb/s
    Width : 1 920 pixels
    Height : 1 080 pixels
    Display aspect ratio : 16:9
    Frame rate mode : Constant
    Frame rate : 25.000 FPS
    Color space : YUV
    Chroma subsampling : 4:2:0
    Bit depth : 8 bits
    Scan type : Progressive
    Bits/(Pixel*Frame) : 0.103
    Stream size : 4.01 GiB (94%)
    Language : English
    Default : Yes
    Forced : No

    Audio #1
    ID : 2
    Format : E-AC-3
    Format/Info : Enhanced AC-3
    Commercial name : Dolby Digital Plus
    Codec ID : A_EAC3
    Duration : 1 h 47 min
    Bit rate mode : Constant
    Bit rate : 128 kb/s
    Channel(s) : 2 channels
    Channel layout : L R
    Sampling rate : 48.0 kHz
    Frame rate : 31.250 FPS (1536 SPF)
    Compression mode : Lossy
    Stream size : 98.1 MiB (2%)
    Title : E-AC3 English
    Language : English
    Service kind : Complete Main
    Default : Yes
    Forced : No

    Audio #2
    ID : 3
    Format : E-AC-3
    Format/Info : Enhanced AC-3
    Commercial name : Dolby Digital Plus
    Codec ID : A_EAC3
    Duration : 1 h 47 min
    Bit rate mode : Constant
    Bit rate : 128 kb/s
    Channel(s) : 2 channels
    Channel layout : L R
    Sampling rate : 48.0 kHz
    Frame rate : 31.250 FPS (1536 SPF)
    Compression mode : Lossy
    Stream size : 98.1 MiB (2%)
    Title : E-AC3 Thai
    Language : Thai
    Service kind : Complete Main
    Default : No
    Forced : No

    Text #1
    ID : 4
    Format : VobSub
    Muxing mode : zlib
    Codec ID : S_VOBSUB
    Codec ID/Info : Picture based subtitle format used on DVDs
    Duration : 1 h 45 min
    Bit rate : 10.4 kb/s
    Count of elements : 1415
    Stream size : 7.90 MiB (0%)
    Title : Sub Thai 1080p
    Language : Thai
    Default : No
    Forced : No

    Text #2
    ID : 5
    Format : UTF-8
    Codec ID : S_TEXT/UTF8
    Codec ID/Info : UTF-8 Plain Text
    Duration : 1 h 45 min
    Bit rate : 109 b/s
    Count of elements : 1415
    Stream size : 84.7 KiB (0%)
    Title : Sub Thai SRT
    Language : Thai
    Default : No
    Forced : No

    Text #3
    ID : 6
    Format : PGS
    Muxing mode : zlib
    Codec ID : S_HDMV/PGS
    Codec ID/Info : Picture based subtitle format used on BDs/HD-DVDs
    Duration : 1 h 45 min
    Bit rate : 32.0 kb/s
    Count of elements : 2830
    Stream size : 24.2 MiB (1%)
    Title : Sub Thai PGS
    Language : Thai
    Default : No
    Forced : No

    Text #4
    ID : 7
    Format : PGS
    Muxing mode : zlib
    Codec ID : S_HDMV/PGS
    Codec ID/Info : Picture based subtitle format used on BDs/HD-DVDs
    Duration : 1 h 45 min
    Bit rate : 53.6 kb/s
    Count of elements : 2830
    Stream size : 40.6 MiB (1%)
    Title : Sub Thai PGS NETFLIX
    Language : Thai
    Default : Yes
    Forced : No

    Text #5
    ID : 8
    Format : UTF-8
    Codec ID : S_TEXT/UTF8
    Codec ID/Info : UTF-8 Plain Text
    Duration : 1 h 45 min
    Bit rate : 22 b/s
    Count of elements : 286
    Stream size : 17.5 KiB (0%)
    Title : Sub English Forced
    Language : Thai
    Default : No
    Forced : Yes

    Text #6
    ID : 9
    Format : UTF-8
    Codec ID : S_TEXT/UTF8
    Codec ID/Info : UTF-8 Plain Text
    Duration : 1 h 46 min
    Bit rate : 60 b/s
    Count of elements : 1609
    Stream size : 47.0 KiB (0%)
    Title : Sub English SRT
    Language : English
    Default : No
    Forced : No






    Download:filecondo
    http://www.filecondo.com/dl.php?f=I6f02d1O01zE
    Download:cornfile
    https://www.cornfile.com/eommc7fdmcso

  2. The Following 2 Users Say Thank You to Duckload.us For This Useful Post:

    Jodz14 (06-15-2022), noi54 (06-15-2022)

  3. #2
    Senior Member
    สมัครเมื่อ
    Jul 2013
    โพสต์
    3,335
    Thanks
    0
    Thanked 0 Times in 0 Posts
    ขอบคุณครับ

+ ตอบกลับกระทู้

ข้อมูลกระทู้

Users Browsing this Thread

ในขณะนี้มี 1 ท่านดูกระทู้อยู่. (0 สมาชิกและ 1 ผู้เยี่ยมชม)

     

กฎการโพสต์ข้อความ

  • ท่าน ไม่สามารถ ตั้งกระทู้ใหม่ได้
  • ท่าน ไม่สามารถ ตอบกระทู้ได้
  • ท่าน ไม่สามารถ แนบไฟล์ได้
  • ท่าน ไม่สามารถ แก้ไขข้อความโพสต์ได้
  • BB code สถานะ เปิด
  • Smilies สถานะ เปิด
  • [IMG] สถานะ เปิด
  • HTML สถานะ ปิด