+ ตอบกลับกระทู้
สรุปผลการค้นหา 1 ถึง 2 จากทั้งหมด 2
  1. #1
    Administrators รูปส่วนตัว Duckload.us
    สมัครเมื่อ
    Dec 2010
    โพสต์
    136,553
    Thanks
    7
    Thanked 141,368 Times in 61,965 Posts

    Thumbs up [จีน]-Beauty Of Tang Men (2021) จอมนางแห่งถังเหมิน [พากย์:จีน/ไทย มาสเตอร์][SUB:อังกฤษ]-Blu-ray.H.264.1080p. [Modified]-[พากย์ไทย (Master)]



    Movie: Beauty Of Tang Men
    Country: China
    Release Date: Dec 15, 2021
    Duration: 1 hr. 15 min.
    Content Rating: 13+ - Teens 13 or older
    Native Title: 唐 门 : 美 人 江 湖
    Also Known As: 唐 門 : 美 人 江 湖 , The Tangs' Creed , Tang Men Zhi Mei Ren Jiang Hu , 美 人 江 湖
    Director: Luo Yue
    Genres: Action, Thriller, Historical, Drama

    ตามตำนานเล่าว่าสำนักถังมีสมบัติลับ ต้งเทียนอวี๋ ที่สามารถใช้ทำนายชื่อของคนชั่วและสังหารพวกเขาก่อนจ ะกระทำชั่วได้ ผู้นำคนใหม่ของสำนักถังอย่างถังอู๋เยียนก็มีชื่อปราก ฏอยู่บนต้งเทียนอวี๋ด้วย ในระหว่างการถูกบังคับให้หนี ถังอู๋เยียนได้พบกับฉู่เฉินนักย่องเบาผู้จิตใจดี ภายใต้การผูกมิตรกัน นางมุ่งมั่นที่จะกลับไปทำลายหุนเทียนอี๋ และลิขิตชะตาชีวิตของตัวเองอีกครั้ง


    General
    Complete name : Beauty Of Tang Men (2021) จอมนางแห่งถังเหมิน.mkv
    Format : Matroska
    Format version : Version 4
    File size : 4.31 GiB
    Duration : 1 h 25 min
    Overall bit rate : 7 211 kb/s
    Movie name : Beauty Of Tang Men (2021) จอมนางแห่งถังเหมิน

    Video
    ID : 1
    Format : AVC
    Format/Info : Advanced Video Codec
    Format profile : [email protected]
    Format settings : CABAC / 1 Ref Frames
    Format settings, CABAC : Yes
    Format settings, Reference : 1 frame
    Format settings, GOP : M=1, N=25
    Codec ID : V_MPEG4/ISO/AVC
    Duration : 1 h 25 min
    Bit rate mode : Constant
    Bit rate : 6 811 kb/s
    Width : 1 918 pixels
    Height : 800 pixels
    Display aspect ratio : 2.40:1
    Original display aspect rat : 2.40:1
    Frame rate mode : Constant
    Frame rate : 25.000 FPS
    Color space : YUV
    Chroma subsampling : 4:2:0
    Bit depth : 8 bits
    Scan type : Progressive
    Bits/(Pixel*Frame) : 0.178
    Stream size : 4.07 GiB (94%)
    Title : Beauty Of Tang Men (2021) จอมนางแห่งถังเหมิน
    Language : Chinese
    Default : Yes
    Forced : No

    Audio #1
    ID : 2
    Format : AAC LC
    Format/Info : Advanced Audio Codec Low Complexity
    Codec ID : A_AAC-2
    Duration : 1 h 25 min
    Bit rate : 196 kb/s
    Channel(s) : 2 channels
    Channel layout : L R
    Sampling rate : 44.1 kHz
    Frame rate : 43.066 FPS (1024 SPF)
    Compression mode : Lossy
    Stream size : 120 MiB (3%)
    Title : Th.AAC.2.0_196 kbs
    Language : Thai
    Default : Yes
    Forced : No

    Audio #2
    ID : 3
    Format : AAC LC
    Format/Info : Advanced Audio Codec Low Complexity
    Codec ID : A_AAC-2
    Duration : 1 h 25 min
    Bit rate : 192 kb/s
    Channel(s) : 2 channels
    Channel layout : L R
    Sampling rate : 44.1 kHz
    Frame rate : 43.066 FPS (1024 SPF)
    Compression mode : Lossy
    Stream size : 116 MiB (3%)
    Title : Chi.AAC.2.0_192 kbs
    Language : Chinese
    Default : Yes
    Forced : No

    Text
    ID : 4
    Format : PGS
    Muxing mode : zlib
    Codec ID : S_HDMV/PGS
    Codec ID/Info : Picture based subtitle format used on BDs/HD-DVDs
    Duration : 1 h 21 min
    Bit rate : 26.9 kb/s
    Count of elements : 2286
    Stream size : 15.7 MiB (0%)
    Title : EN.110.3.83.Yellow
    Language : English
    Default : No
    Forced : No





    Download:filecondo
    http://www.filecondo.com/dl.php?f=D101841O0lcs
    Download:cornfile
    https://www.cornfile.com/7kto67rkhedd

  2. The Following User Says Thank You to Duckload.us For This Useful Post:

    masaomi (06-15-2022)

  3. #2
    Senior Member
    สมัครเมื่อ
    Oct 2013
    โพสต์
    2,180
    Thanks
    0
    Thanked 0 Times in 0 Posts
    ขอบคุณครับ

+ ตอบกลับกระทู้

ข้อมูลกระทู้

Users Browsing this Thread

ในขณะนี้มี 1 ท่านดูกระทู้อยู่. (0 สมาชิกและ 1 ผู้เยี่ยมชม)

     

กฎการโพสต์ข้อความ

  • ท่าน ไม่สามารถ ตั้งกระทู้ใหม่ได้
  • ท่าน ไม่สามารถ ตอบกระทู้ได้
  • ท่าน ไม่สามารถ แนบไฟล์ได้
  • ท่าน ไม่สามารถ แก้ไขข้อความโพสต์ได้
  • BB code สถานะ เปิด
  • Smilies สถานะ เปิด
  • [IMG] สถานะ เปิด
  • HTML สถานะ ปิด