+ ตอบกลับกระทู้
สรุปผลการค้นหา 1 ถึง 5 จากทั้งหมด 5
  1. #1
    Administrators รูปส่วนตัว Duckload.us
    สมัครเมื่อ
    Dec 2010
    โพสต์
    136,553
    Thanks
    7
    Thanked 141,368 Times in 61,965 Posts

    Thumbs up [ฝรั่ง]-[* หนังใหม่ *] The Lost City (2022) ผจญภัยนครสาบสูญ [ 1080p WEB-DL ]-[ เสียง : TH 5.1 DD - EN 5.1 DDP Atmos ]-[ คำบรรยาย : TH - EN ]




    เรื่องย่อ : ลอเร็ตตา เสจ (แซนดร้า บูลล็อค) คือนักเขียนผู้เก่งกาจ แต่รักสันโดษ เธอได้เขียนหนังสือเกี่ยวกับสถานที่แปลกประหลาดในนิย ายรักผจญภัยยอดนิยมของเธอ โดยมี อลัน (แชนนิ่ง เททัม) มาเป็นนายแบบสุดหล่อมาขึ้นหน้าปกหนังสือ อลัน ทุ่มเทชีวิตเต็มทในการปรากฏตัวเป็น แดช ฮีโร่จากนิยาย ลอเร็ตตา และ อลัน ออกทัวร์โปรโมตหนังสือเล่มใหม่ร่วมกัน และพวกเขาทั้งคู่ถูกลักพาตัวโดย มหาเศรษฐีสุดประหลาด (แดเนียล แรดคลิฟฟ์) ผู้ซึ่งหวังว่าเธอจะสามารถนำเขาไปสู่การพบสมบัติในเม ืองโบราณที่สาบสูญในนิยายเรื่องล่าสุดของเธอ อลัน ต้องการพิสูจน์ว่าเขาสามารถเป็นฮีโร่ได้ในชีวิตจริงแ ละไม่ใช่แค่ในหนังสือเท่านั้น เขาจึงออกเดินทางไปเพื่อช่วยเหลือเธอ เมื่อเข้าสู่การผจญภัยในป่าใหญ่ ชายหญิงต่างขั้วจะต้องทำงานร่วมกันเพื่อเอาชีวิตรอดจ ากสถานการณ์ต่าง ๆ และค้นหาสมบัติโบราณก่อนที่มันจะสูญหายไปตลอดกาล


    Format : AVC
    Format/Info : Advanced Video Codec
    Format profile : [email protected]
    Format settings : CABAC / 4 Ref Frames
    Format settings, CABAC : Yes
    Format settings, Reference : 4 frames
    Codec ID : V_MPEG4/ISO/AVC
    Duration : 1 h 51 min
    Bit rate mode : Constant
    Bit rate : 6 486 kb/s
    Nominal bit rate : 10 000 kb/s
    Width : 1 920 pixels
    Height : 1 080 pixels
    Display aspect ratio : 16:9
    Frame rate mode : Constant
    Frame rate : 23.976 (24000/1001) FPS
    Color space : YUV
    Chroma subsampling : 4:2:0
    Bit depth : 8 bits
    Scan type : Progressive
    Bits/(Pixel*Frame) : 0.130
    Stream size : 5.07 GiB (84%)
    Title : MRJ
    Language : English
    Default : Yes
    Forced : No
    Color range : Limited
    Color primaries : BT.709
    Transfer characteristics : BT.709
    Matrix coefficients : BT.709

    Audio #1
    ID : 2
    Format : AC-3
    Format/Info : Audio Coding 3
    Commercial name : Dolby Digital
    Codec ID : A_AC3
    Duration : 1 h 51 min
    Bit rate mode : Constant
    Bit rate : 384 kb/s
    Channel(s) : 6 channels
    Channel layout : L R C LFE Ls Rs
    Sampling rate : 48.0 kHz
    Frame rate : 31.250 FPS (1536 SPF)
    Compression mode : Lossy
    Stream size : 307 MiB (5%)
    Title : TH 5.1 DD : MRJ
    Language : Thai
    Service kind : Complete Main
    Default : Yes
    Forced : No

    Audio #2
    ID : 3
    Format : E-AC-3 JOC
    Format/Info : Enhanced AC-3 with Joint Object Coding
    Commercial name : Dolby Digital Plus with Dolby Atmos
    Codec ID : A_EAC3
    Duration : 1 h 51 min
    Bit rate mode : Constant
    Bit rate : 768 kb/s
    Channel(s) : 6 channels
    Channel layout : L R C LFE Ls Rs
    Sampling rate : 48.0 kHz
    Frame rate : 31.250 FPS (1536 SPF)
    Compression mode : Lossy
    Delay relative to video : 5 s 428 ms
    Stream size : 614 MiB (10%)
    Title : EN 5.1 DDP Atmos
    Language : English
    Service kind : Complete Main
    Default : No
    Forced : No
    Complexity index : 16
    Number of dynamic objects : 15
    Bed channel count : 1 channel
    Bed channel configuration : LFE

    Text #1
    ID : 4
    Format : PGS
    Muxing mode : zlib
    Codec ID : S_HDMV/PGS
    Codec ID/Info : Picture based subtitle format used on BDs/HD-DVDs
    Duration : 1 h 51 min
    Bit rate : 41.2 kb/s
    Count of elements : 3308
    Stream size : 32.9 MiB (1%)
    Title : TH 1080p
    Language : Thai
    Default : Yes
    Forced : No

    Text #2
    ID : 5
    Format : PGS
    Muxing mode : zlib
    Codec ID : S_HDMV/PGS
    Codec ID/Info : Picture based subtitle format used on BDs/HD-DVDs
    Duration : 1 h 45 min
    Bit rate : 47.9 kb/s
    Count of elements : 3562
    Stream size : 36.0 MiB (1%)
    Title : EN 1080p
    Language : English
    Default : No
    Forced : No



    Download:filecondo
    The.Lost.City.2022.1080p.WEBRip.x264NW.mkv
    http://www.filecondo.com/dl.php?f=I1a2961O0lJB
    The.Lost.City.2022.1080p.WEB-DL.TH5.1.DD.EN5.1.DDP.Atmos.H.264-MRJ.mkv
    http://www.filecondo.com/dl.php?f=6fcb401O0lEJ

    Download:cornfile
    The.Lost.City.2022.1080p.WEB-DL.TH5.1.DD.EN5.1.DDP.Atmos.H.264-MRJ.mkv - 6.0 GB
    The.Lost.City.2022.1080p.WEBRip.x264NW.mkv - 2.9 GB

  2. The Following 5 Users Say Thank You to Duckload.us For This Useful Post:

    jackjangri (06-13-2022), Jodz14 (06-15-2022), kappa (06-12-2022), noi54 (06-15-2022), Wesker_TOT (06-13-2022)

  3. #2
    I'm donate !
    สมัครเมื่อ
    Jun 2011
    โพสต์
    442
    Thanks
    597
    Thanked 40 Times in 29 Posts
    thankyou...

  4. #3
    Senior Member
    สมัครเมื่อ
    Dec 2013
    โพสต์
    3,713
    Thanks
    5,620
    Thanked 0 Times in 0 Posts
    ขอบคุณครับ...

  5. #4
    Senior Member
    สมัครเมื่อ
    Oct 2013
    โพสต์
    2,180
    Thanks
    0
    Thanked 0 Times in 0 Posts
    ขอบคุณครับ

  6. #5
    Senior Member
    สมัครเมื่อ
    Jul 2013
    โพสต์
    3,335
    Thanks
    0
    Thanked 0 Times in 0 Posts
    ขอบคุณครับ

+ ตอบกลับกระทู้

ข้อมูลกระทู้

Users Browsing this Thread

ในขณะนี้มี 2 ท่านดูกระทู้อยู่. (1 สมาชิกและ 1 ผู้เยี่ยมชม)

  1. sawara

กฎการโพสต์ข้อความ

  • ท่าน ไม่สามารถ ตั้งกระทู้ใหม่ได้
  • ท่าน ไม่สามารถ ตอบกระทู้ได้
  • ท่าน ไม่สามารถ แนบไฟล์ได้
  • ท่าน ไม่สามารถ แก้ไขข้อความโพสต์ได้
  • BB code สถานะ เปิด
  • Smilies สถานะ เปิด
  • [IMG] สถานะ เปิด
  • HTML สถานะ ปิด