ระหว่างช่วงการหาเสียง อยู่ดีๆก็เกิดเหตุระเบิดขึ้นที่บ้านของ คิมอุนบอม (ซอลคยองกู) 1 ในนักการเมืองตัวเต็งที่จะได้เป็นประธานาธิบดี เมื่อสืบหาต้นตอ กลับพบว่าผู้ลงมืออาจจะเป็น ซอชางแด (อีซอนกยุน) 1 ในทีมงานของเขาเอง

Format : Matroska
Format version : Version 4
File size : 4.25 GiB
Duration : 2 h 3 min
Overall bit rate : 4 916 kb/s
Encoded date : UTC 2022-06-12 06:37:12
Writing application : mkvmerge v55.0.0 ('Waiting For Space') 64-bit
Writing library : libebml v1.4.2 + libmatroska v1.6.4

Video
ID : 1
Format : AVC
Format/Info : Advanced Video Codec
Format profile : [email protected]
Format settings : CABAC / 3 Ref Frames
Format settings, CABAC : Yes
Format settings, Reference : 3 frames
Codec ID : V_MPEG4/ISO/AVC
Duration : 2 h 3 min
Bit rate : 4 503 kb/s
Width : 1 920 pixels
Height : 1 036 pixels
Display aspect ratio : 1.85:1
Frame rate mode : Constant
Frame rate : 29.970 (30000/1001) FPS
Color space : YUV
Chroma subsampling : 4:2:0
Bit depth : 8 bits
Scan type : Progressive
Bits/(Pixel*Frame) : 0.076
Stream size : 3.89 GiB (92%)
Language : Korean
Default : Yes
Forced : No

Audio
ID : 2
Format : AC-3
Format/Info : Audio Coding 3
Commercial name : Dolby Digital
Codec ID : A_AC3
Duration : 2 h 3 min
Bit rate mode : Constant
Bit rate : 384 kb/s
Channel(s) : 2 channels
Channel layout : L R
Sampling rate : 48.0 kHz
Frame rate : 31.250 FPS (1536 SPF)
Compression mode : Lossy
Delay relative to video : 21 ms
Stream size : 340 MiB (8%)
Title : AC-3 Korean
Language : Korean
Service kind : Complete Main
Default : Yes
Forced : No

Text #1
ID : 3
Format : VobSub
Muxing mode : zlib
Codec ID : S_VOBSUB
Codec ID/Info : Picture based subtitle format used on DVDs
Duration : 1 h 58 min
Bit rate : 15.2 kb/s
Count of elements : 1552
Stream size : 13.0 MiB (0%)
Title : Sub Thai 1080p
Language : Thai
Default : No
Forced : No

Text #2
ID : 4
Format : UTF-8
Codec ID : S_TEXT/UTF8
Codec ID/Info : UTF-8 Plain Text
Duration : 1 h 58 min
Bit rate : 153 b/s
Count of elements : 1552
Stream size : 133 KiB (0%)
Title : Sub Thai SRT
Language : Thai
Default : No
Forced : No

Text #3
ID : 5
Format : PGS
Muxing mode : zlib
Codec ID : S_HDMV/PGS
Codec ID/Info : Picture based subtitle format used on BDs/HD-DVDs
Duration : 1 h 58 min
Bit rate : 45.2 kb/s
Count of elements : 3104
Stream size : 38.4 MiB (1%)
Title : Sub Thai PGS
Language : Thai
Default : Yes
Forced : No

Text #4
ID : 6
Format : UTF-8
Codec ID : S_TEXT/UTF8
Codec ID/Info : UTF-8 Plain Text
Duration : 1 h 58 min
Bit rate : 58 b/s
Count of elements : 1703
Stream size : 50.8 KiB (0%)
Title : Sub English SRT
Language : English
Default : No
Forced : No






https://www.cornfile.com/b4yl8qkszr1c
http://www.filecondo.com/dl.php?f=fa53531O0Iqk