+ ตอบกลับกระทู้
สรุปผลการค้นหา 1 ถึง 2 จากทั้งหมด 2
  1. #1
    Administrators รูปส่วนตัว Duckload.us
    สมัครเมื่อ
    Dec 2010
    โพสต์
    136,553
    Thanks
    7
    Thanked 141,368 Times in 61,965 Posts

    Thumbs up [ฝรั่ง] The Hitmans Wifes Bodyguard (2021) ​แสบ ซ่าส์ แบบว่าบอดี้การ์ด 2 (Sound:Eng/Thai Master)[SUB:อังกฤษ/ไทย]



    เมื่อสุดยอดบอดี้การ์ดระดับพระกาฬ ไมเคิล ไบรซ์ (ไรอัน เรย์โนลด์ส) เลือกที่จะพักงานตัวเองเพื่อรักษาสภาพจิตใจ แต่แล้วเขากลับถูก โซเนีย คินเคด (ซัลมา ฮาเย็ค) ภรรยาของมือสังหารรุ่นใหญ่ลายครามแห่งวงการนักฆ่า ดาเรียส คินเคด (ซามูเอล แอล. แจ็คสัน) หลอกให้มาทำภารกิจตามหาสามีที่โดนลักพาตัว ก่อนที่ทั้งสามคนจะต้องร่วมมือกันหยุดยั้งอาชญากรสุด เหี้ยม อริสโตเติล (แอนโตนิโอ แบนเดอรัส) ที่หมายจะก่อวินาศกรรมทั่วยุโรป

    Format : Matroska

    Format version : Version 4

    File size : 4.94 GiB

    Duration : 1 h 56 min

    Overall bit rate : 6 063 kb/s

    Movie name : The.Hitmans.Wifes.Bodyguard.2021.EXTENDED.1080p.WE BRip.x264_©GOLD CUP™_WWW.TT-TORRENT.COM

    Video

    ID : 1

    Format : AVC

    Format/Info : Advanced Video Codec

    Format profile : [email protected]

    Format settings : CABAC / 1 Ref Frames

    Format settings, CABAC : Yes

    Format settings, Reference : 1 frame

    Format settings, GOP : M=1, N=25

    Codec ID : V_MPEG4/ISO/AVC

    Duration : 1 h 56 min

    Bit rate mode : Constant

    Bit rate : 5 591 kb/s

    Width : 1 920 pixels

    Height : 796 pixels

    Display aspect ratio : 2.40:1

    Frame rate mode : Constant

    Frame rate : 23.976 (24000/1001) FPS

    Color space : YUV

    Chroma subsampling : 4:2:0

    Bit depth : 8 bits

    Scan type : Progressive

    Bits/(Pixel*Frame) : 0.153

    Stream size : 4.55 GiB (92%)

    Title : The.Hitmans.Wifes.Bodyguard.2021.EXTENDED.1080p.WE BRip.x264_©GOLD CUP™

    Language : English

    Default : Yes

    Forced : No

    Audio #1

    ID : 2

    Format : AAC LC

    Format/Info : Advanced Audio Codec Low Complexity

    Codec ID : A_AAC-2

    Duration : 1 h 56 min

    Bit rate : 224 kb/s

    Channel(s) : 6 channels

    Channel layout : C L R Ls Rs LFE

    Sampling rate : 48.0 kHz

    Frame rate : 46.875 FPS (1024 SPF)

    Compression mode : Lossy

    Stream size : 187 MiB (4%)

    Title : En.AAC_224 kbs.6 channels

    Language : English

    Default : Yes

    Forced : No

    Audio #2

    ID : 3

    Format : AC-3

    Format/Info : Audio Coding 3

    Commercial name : Dolby Digital

    Codec ID : A_AC3

    Duration : 1 h 56 min

    Bit rate mode : Constant

    Bit rate : 192 kb/s

    Channel(s) : 2 channels

    Channel layout : L R

    Sampling rate : 48.0 kHz

    Frame rate : 31.250 FPS (1536 SPF)

    Compression mode : Lossy

    Stream size : 160 MiB (3%)

    Title : Th.2.0.AC3.192k

    Language : Thai

    Service kind : Complete Main

    Default : Yes

    Forced : No

    Text #1

    ID : 4

    Format : PGS

    Muxing mode : zlib

    Codec ID : S_HDMV/PGS

    Codec ID/Info : Picture based subtitle format used on BDs/HD-DVDs

    Duration : 1 h 49 min

    Bit rate : 52.3 kb/s

    Count of elements : 3634

    Stream size : 41.1 MiB (1%)

    Title : Th.3.100.90.White

    Language : Thai

    Default : No

    Forced : No

    Text #2

    ID : 5

    Format : PGS

    Muxing mode : zlib

    Codec ID : S_HDMV/PGS

    Codec ID/Info : Picture based subtitle format used on BDs/HD-DVDs

    Duration : 1 h 50 min

    Bit rate : 61.9 kb/s

    Count of elements : 4588

    Stream size : 49.1 MiB (1%)

    Title : EN.110.3.83.Yellow

    Language : English

    Default : No

    Forced : No





    Download:filecondo
    The.Hitmans.Wifes.Bodyguard.2021.EXTENDED.1080p.WE BRip.x264_GOLD_CUP.mkv
    http://www.filecondo.com/dl.php?f=R886fb1O0INe
    The_Hitman.s_Wife.s_Bodyguard_(2021)_แสบซ่าส์แบบว่ าบอดี้การ์ด_2.mkv
    http://www.filecondo.com/dl.php?f=5a41f01O12IG

    Download:cornfile
    The Hitmans Wifes Bodyguard (2021).mkv - 2.5 GB
    The.Hitmans.Wifes.Bodyguard.2021.EXTENDED.1080p.WE BRip.x264_GOLD CUP.mkv - 4.9 GB

  2. The Following 4 Users Say Thank You to Duckload.us For This Useful Post:

    bigbang06 (06-17-2022), Jodz14 (06-18-2022), noi54 (06-18-2022), Wesker_TOT (06-19-2022)

  3. #2
    Senior Member
    สมัครเมื่อ
    Dec 2013
    โพสต์
    3,713
    Thanks
    5,620
    Thanked 0 Times in 0 Posts
    ขอบคุณครับ...

+ ตอบกลับกระทู้

ข้อมูลกระทู้

Users Browsing this Thread

ในขณะนี้มี 1 ท่านดูกระทู้อยู่. (0 สมาชิกและ 1 ผู้เยี่ยมชม)

     

กฎการโพสต์ข้อความ

  • ท่าน ไม่สามารถ ตั้งกระทู้ใหม่ได้
  • ท่าน ไม่สามารถ ตอบกระทู้ได้
  • ท่าน ไม่สามารถ แนบไฟล์ได้
  • ท่าน ไม่สามารถ แก้ไขข้อความโพสต์ได้
  • BB code สถานะ เปิด
  • Smilies สถานะ เปิด
  • [IMG] สถานะ เปิด
  • HTML สถานะ ปิด