+ ตอบกลับกระทู้
สรุปผลการค้นหา 1 ถึง 4 จากทั้งหมด 4
  1. #1
    Administrators รูปส่วนตัว Duckload.us
    สมัครเมื่อ
    Dec 2010
    โพสต์
    136,553
    Thanks
    7
    Thanked 141,368 Times in 61,965 Posts

    Thumbs up [ฝรั่ง] Way Down (The Vault) (2021) หยุดโลกปล้น [พากย์:อังกฤษ/ไทย มาสเตอร์][SUB:ไทย/อังกฤษ][1080p]



    ธนาคารแห่งชาติสเปน ขึ้นชื่อว่าเป็นธนาคารที่มีระบบรักษาความปลอดภัยขั้น สูงสุดจนไม่มีโจรหน้าไหนกล้าปล้น หนึ่งในสาเหตุก็เพราะมันไม่มีพิมพ์เขียว ไม่มีข้อมูล และไม่มีคนที่ยังมีชีวิตอยู่คนไหนรู้จักกลไกการทำงาน ของตู้เซฟที่ถูกสร้างขึ้นเมื่อหลายร้อยปีที่แล้ว ปริศนาที่เหมือนจะไม่มีคำตอบนี้ดึงดูดความสนใจของ ธอม (เฟรดดี้ ไฮร์มอร์) หนุ่มอัจฉริยะที่ต้องการเอาชนะเซฟโบราณที่ซ่อนอยู่ที ่ชั้นใต้ดินของธนาคารกลางสเปน

    Format : Matroska
    Format version : Version 4
    File size : 4.42 GiB
    Duration : 1 h 58 min
    Overall bit rate : 5 350 kb/s
    Movie name : Way.Down.2021.1080p.BluRay.H264_©GOLD CUP™_WWW.TT-TORRENT.COM

    Video
    ID : 1
    Format : AVC
    Format/Info : Advanced Video Codec
    Format profile : [email protected]
    Format settings : CABAC / 1 Ref Frames
    Format settings, CABAC : Yes
    Format settings, Reference : 1 frame
    Format settings, GOP : M=1, N=25
    Codec ID : V_MPEG4/ISO/AVC
    Duration : 1 h 58 min
    Bit rate mode : Constant
    Bit rate : 4 653 kb/s
    Width : 1 920 pixels
    Height : 804 pixels
    Display aspect ratio : 2.40:1
    Frame rate mode : Constant
    Frame rate : 23.976 (24000/1001) FPS
    Color space : YUV
    Chroma subsampling : 4:2:0
    Bit depth : 8 bits
    Scan type : Progressive
    Bits/(Pixel*Frame) : 0.126
    Stream size : 3.84 GiB (87%)
    Title : Way.Down.2021.1080p.BluRay.H264_©GOLD CUP™
    Language : English
    Default : Yes
    Forced : No

    Audio #1
    ID : 2
    Format : AAC LC
    Format/Info : Advanced Audio Codec Low Complexity
    Codec ID : A_AAC-2
    Duration : 1 h 58 min
    Bit rate : 224 kb/s
    Channel(s) : 6 channels
    Channel layout : C L R Ls Rs LFE
    Sampling rate : 48.0 kHz
    Frame rate : 46.875 FPS (1024 SPF)
    Compression mode : Lossy
    Stream size : 190 MiB (4%)
    Title : En.AAC_224 kbs.6 channels
    Language : English
    Default : Yes
    Forced : No

    Audio #2
    ID : 3
    Format : AAC LC
    Format/Info : Advanced Audio Codec Low Complexity
    Codec ID : A_AAC-2
    Duration : 1 h 58 min
    Bit rate : 447 kb/s
    Channel(s) : 6 channels
    Channel layout : C L R Ls Rs LFE
    Sampling rate : 48.0 kHz
    Frame rate : 46.875 FPS (1024 SPF)
    Compression mode : Lossy
    Stream size : 378 MiB (8%)
    Title : Th.AAC_447 kbs.6 channels
    Language : Thai
    Default : Yes
    Forced : No

    Text #1
    ID : 4
    Format : PGS
    Muxing mode : zlib
    Codec ID : S_HDMV/PGS
    Codec ID/Info : Picture based subtitle format used on BDs/HD-DVDs
    Duration : 1 h 47 min
    Bit rate : 25.9 kb/s
    Count of elements : 2044
    Stream size : 19.9 MiB (0%)
    Title : Th.3.100.90.White
    Language : Thai
    Default : No
    Forced : No

    Text #2
    ID : 5
    Format : PGS
    Muxing mode : zlib
    Codec ID : S_HDMV/PGS
    Codec ID/Info : Picture based subtitle format used on BDs/HD-DVDs
    Duration : 1 h 47 min
    Bit rate : 26.0 kb/s
    Count of elements : 1992
    Stream size : 19.9 MiB (0%)
    Title : EN.110.3.83.Yellow
    Language : English
    Default : No
    Forced : No





    Download:filecondo
    http://www.filecondo.com/dl.php?f=d6b8841O0IPL
    Download:cornfile
    https://www.cornfile.com/yl58mv8q8lx9

  2. The Following 5 Users Say Thank You to Duckload.us For This Useful Post:

    bigbang06 (06-17-2022), Jodz14 (06-18-2022), noi54 (06-18-2022), sawara (เมื่อวานนี้), Wesker_TOT (06-19-2022)

  3. #2
    Senior Member
    สมัครเมื่อ
    Dec 2013
    โพสต์
    3,713
    Thanks
    5,620
    Thanked 0 Times in 0 Posts
    ขอบคุณครับ...

  4. #3
    Senior Member
    สมัครเมื่อ
    Jul 2013
    โพสต์
    3,335
    Thanks
    0
    Thanked 0 Times in 0 Posts
    ขอบคุณครับ

  5. #4
    Senior Member
    สมัครเมื่อ
    Dec 2013
    โพสต์
    639
    Thanks
    581
    Thanked 0 Times in 0 Posts
    ขอบคุณครับบ

+ ตอบกลับกระทู้

ข้อมูลกระทู้

Users Browsing this Thread

ในขณะนี้มี 1 ท่านดูกระทู้อยู่. (0 สมาชิกและ 1 ผู้เยี่ยมชม)

     

กฎการโพสต์ข้อความ

  • ท่าน ไม่สามารถ ตั้งกระทู้ใหม่ได้
  • ท่าน ไม่สามารถ ตอบกระทู้ได้
  • ท่าน ไม่สามารถ แนบไฟล์ได้
  • ท่าน ไม่สามารถ แก้ไขข้อความโพสต์ได้
  • BB code สถานะ เปิด
  • Smilies สถานะ เปิด
  • [IMG] สถานะ เปิด
  • HTML สถานะ ปิด