+ ตอบกลับกระทู้
สรุปผลการค้นหา 1 ถึง 1 จากทั้งหมด 1
  1. #1
    Administrators รูปส่วนตัว Duckload.us
    สมัครเมื่อ
    Dec 2010
    โพสต์
    136,550
    Thanks
    7
    Thanked 141,349 Times in 61,962 Posts

    Lightbulb [จีน]-Be My Cat (2021) วุ่นรักองค์ชายแมวเหมียว Ep.01-24 จบ [1080p][พากย์ไทย-ซับไทย]-WEB-DL.H.264.1080p. [Hi-def rip from Master]-[พากย์ไทย บรรยายไทย]



    ในระหว่างออกตามหาพี่ชาย ซูเสี่ยวเหอ (เถียนซีเวย) สาวสวยเจ้าของร้านสัตว์เลี้ยงได้พบกับ โม่ซิวหรั่น (เซียวข่ายจง) แม่ทัพหนุ่มแห่งแคว้นเทียนหลีนอนหมดสติโดยบังเอิญ เสี่ยวเหอได้จุมพิตหวังจะผายปอดให้แม่ทัพฟื้นคืนสติ แต่กลายเป็นว่าไข่มุกวิญญาณของเสี่ยวเหอทำให้ 'กูกูหลี' องค์ชายแมวเหมียวแห่งดาวอวี้หลีได้เข้ามาอาศัยอยู่ใน ร่างของโม่ซิวหรั่น การจูบในครั้งนี้ยังได้สร้างพันธะสัญญานายทาสขึ้นมา และมีเพียงจูบแห่งรักแท้เท่านั้นที่จะยกเลิกสัญญานี้ ได้ ในขณะที่เสี่ยวเหอพยายามรวบรวมไข่มุกทั้งสี่เพื่อช่ว ยท่านพี่ โม่ซิวหรั่นเองก็พยายามทำทุกวิธีให้เสี่ยวเหอตกหลุมร ักและมอบจูบแห่งรักแท้ให้แก่เขา











    Video
    ID : 1
    Format : AVC
    Format/Info : Advanced Video Codec
    Format profile : [email protected]
    Format settings : CABAC / 4 Ref Frames
    Format settings, CABAC : Yes
    Format settings, Reference : 4 frames
    Codec ID : V_MPEG4/ISO/AVC
    Duration : 36 min 40 s
    Bit rate : 4 000 kb/s
    Width : 1 920 pixels
    Height : 1 080 pixels
    Display aspect ratio : 16:9
    Frame rate mode : Constant
    Frame rate : 25.000 FPS
    Color space : YUV
    Chroma subsampling : 4:2:0
    Bit depth : 8 bits
    Scan type : Progressive
    Bits/(Pixel*Frame) : 0.077
    Stream size : 1.02 GiB (94%)
    Title : Monomax
    Writing library : x264 core 148
    Encoding settings : cabac=1 / ref=3 / deblock=1:0:0 / analyse=0x3:0x113 / me=hex / subme=7 / psy=1 / psy_rd=1.00:0.00 / mixed_ref=1 / me_range=16 / chroma_me=1 / trellis=1 / 8x8dct=1 / cqm=0 / deadzone=21,11 / fast_pskip=1 / chroma_qp_offset=-2 / threads=18 / lookahead_threads=3 / sliced_threads=0 / nr=0 / decimate=1 / interlaced=0 / bluray_compat=0 / constrained_intra=0 / bframes=3 / b_pyramid=2 / b_adapt=1 / b_bias=0 / direct=1 / weightb=1 / open_gop=0 / weightp=2 / keyint=240 / keyint_min=121 / scenecut=40 / intra_refresh=0 / rc_lookahead=40 / rc=abr / mbtree=1 / bitrate=4000 / ratetol=1.0 / qcomp=0.60 / qpmin=0 / qpmax=69 / qpstep=4 / ip_ratio=1.40 / aq=1:1.00
    Language : Thai
    Default : Yes
    Forced : No

    Audio #1
    ID : 2
    Format : AAC LC
    Format/Info : Advanced Audio Codec Low Complexity
    Codec ID : A_AAC-2
    Duration : 36 min 40 s
    Bit rate : 128 kb/s
    Channel(s) : 2 channels
    Channel layout : L R
    Sampling rate : 48.0 kHz
    Frame rate : 46.875 FPS (1024 SPF)
    Compression mode : Lossy
    Stream size : 33.6 MiB (3%)
    Language : Thai
    Default : Yes
    Forced : No

    Audio #2
    ID : 3
    Format : AAC LC
    Format/Info : Advanced Audio Codec Low Complexity
    Codec ID : A_AAC-2
    Duration : 36 min 40 s
    Bit rate : 128 kb/s
    Channel(s) : 2 channels
    Channel layout : L R
    Sampling rate : 48.0 kHz
    Frame rate : 46.875 FPS (1024 SPF)
    Compression mode : Lossy
    Stream size : 33.6 MiB (3%)
    Language : Chinese
    Default : No
    Forced : No

    Text #1
    ID : 4
    Format : ASS
    Codec ID : S_TEXT/ASS
    Codec ID/Info : Advanced Sub Station Alpha
    Duration : 35 min 16 s
    Bit rate : 160 b/s
    Count of elements : 526
    Compression mode : Lossless
    Stream size : 41.4 KiB (0%)
    Title : Thai Spark (TV)
    Language : Thai
    Default : No
    Forced : No

    Text #2
    ID : 5
    Format : ASS
    Codec ID : S_TEXT/ASS
    Codec ID/Info : Advanced Sub Station Alpha
    Duration : 35 min 16 s
    Bit rate : 160 b/s
    Count of elements : 526
    Compression mode : Lossless
    Stream size : 41.4 KiB (0%)
    Title : Thai Spark (Pc)
    Language : Thai
    Default : Yes
    Forced : No

    Text #3
    ID : 6
    Format : UTF-8
    Codec ID : S_TEXT/UTF8
    Codec ID/Info : UTF-8 Plain Text
    Duration : 35 min 16 s
    Bit rate : 116 b/s
    Count of elements : 526
    Stream size : 30.2 KiB (0%)
    Title : Thai Spark (Srt)
    Language : Thai
    Default : No
    Forced : No



    Be.My.Cat.2021.S01E16.1080p.WEB-DL.H.264.AAC-(Spark751).mkv
    http://www.filecondo.com/dl.php?f=wf8cc31O2W4Z

    Be.My.Cat.2021.S01E15.1080p.WEB-DL.H.264.AAC-(Spark751).mkv
    http://www.filecondo.com/dl.php?f=Z8e2c81O2W40

    Be.My.Cat.2021.S01E14.1080p.WEB-DL.H.264.AAC-(Spark751).mkv
    http://www.filecondo.com/dl.php?f=Dcddef1O2W32

    Be.My.Cat.2021.S01E13.1080p.WEB-DL.H.264.AAC-(Spark751).mkv
    http://www.filecondo.com/dl.php?f=p991ec1O2W25

    Be.My.Cat.2021.S01E12.1080p.WEB-DL.H.264.AAC-(Spark751).mkv
    http://www.filecondo.com/dl.php?f=Labed11O2W16

    Be.My.Cat.2021.S01E11.1080p.WEB-DL.H.264.AAC-(Spark751).mkv
    http://www.filecondo.com/dl.php?f=O586ab1O2W0F

    Be.My.Cat.2021.S01E10.1080p.WEB-DL.H.264.AAC-(Spark751).mkv
    http://www.filecondo.com/dl.php?f=12805a1O2VZ5

    Be.My.Cat.2021.S01E09.1080p.WEB-DL.H.264.AAC-(Spark751).mkv
    http://www.filecondo.com/dl.php?f=Z134d81O2VXe

    Be.My.Cat.2021.S01E08.1080p.WEB-DL.H.264.AAC-(Spark751).mkv
    http://www.filecondo.com/dl.php?f=C1c48f1O2VWg

    Be.My.Cat.2021.S01E07.1080p.WEB-DL.H.264.AAC-(Spark751).mkv
    http://www.filecondo.com/dl.php?f=Gc4ecc1O2VVx

    Be.My.Cat.2021.S01E06.1080p.WEB-DL.H.264.AAC-(Spark751).mkv
    http://www.filecondo.com/dl.php?f=Lc0eb61O2VUI

    Be.My.Cat.2021.S01E05.1080p.WEB-DL.H.264.AAC-(Spark751).mkv
    http://www.filecondo.com/dl.php?f=hd813b1O2VTp

    Be.My.Cat.2021.S01E04.1080p.WEB-DL.H.264.AAC-(Spark751).mkv
    http://www.filecondo.com/dl.php?f=03b40e1O2VSt

    Be.My.Cat.2021.S01E03.1080p.WEB-DL.H.264.AAC-(Spark751).mkv
    http://www.filecondo.com/dl.php?f=Zbf4151O2VRu

    Be.My.Cat.2021.S01E02.1080p.WEB-DL.H.264.AAC-(Spark751).mkv
    http://www.filecondo.com/dl.php?f=r0d6721O2VQw

    Be.My.Cat.2021.S01E01.1080p.WEB-DL.H.264.AAC-(Spark751).mkv
    http://www.filecondo.com/dl.php?f=Q01f231O2VPX

  2. The Following User Says Thank You to Duckload.us For This Useful Post:

    thelover10 (06-22-2022)

+ ตอบกลับกระทู้

ข้อมูลกระทู้

Users Browsing this Thread

ในขณะนี้มี 1 ท่านดูกระทู้อยู่. (0 สมาชิกและ 1 ผู้เยี่ยมชม)

     

กฎการโพสต์ข้อความ

  • ท่าน ไม่สามารถ ตั้งกระทู้ใหม่ได้
  • ท่าน ไม่สามารถ ตอบกระทู้ได้
  • ท่าน ไม่สามารถ แนบไฟล์ได้
  • ท่าน ไม่สามารถ แก้ไขข้อความโพสต์ได้
  • BB code สถานะ เปิด
  • Smilies สถานะ เปิด
  • [IMG] สถานะ เปิด
  • HTML สถานะ ปิด