+ ตอบกลับกระทู้
สรุปผลการค้นหา 1 ถึง 3 จากทั้งหมด 3
  1. #1
    Administrators รูปส่วนตัว Duckload.us
    สมัครเมื่อ
    Dec 2010
    โพสต์
    151,817
    Thanks
    7
    Thanked 158,780 Times in 69,420 Posts

    Lightbulb [4K] [เกาหลี]-Its Okay, Thats Love (2014) ถ้ารักกัน...มันก็โอเค Ep.01-16 จบ [4K][พากย์ไทย-ซับไทย]-WEB-DL.H.265.อื่น ๆ. [Hi-def rip from Master]-[พากย์ไทย บรรยายไทย]





    ความใส่ใจที่เรามีต่อร่างกายนั้นแทบจะเรียกว่าหมกมุ่ น แต่จะมีสักกี่คนที่ใส่ใจเรื่องของจิตใจตัวเอง เราเคยรู้สึกว่าความคิดผิดแปลกสวนทางกับความตั้งใจไห ม ทุกคนต่างอยากมีความสุข แต่กี่คนกันล่ะที่ละเลยจิตใจทั้งที่กุญแจแห่งความสุข วางอยู่ในนั้น
    ละครเรื่องนี้สะท้อนเรื่องราวของคนที่มีแผลฝังลึก ทั้งที่ไม่รู้ตัวหรือพยายามซ่อนอาการทางจิตเอาไว้ พวกเขาได้เรียนรู้ผ่านกันและกันว่าพวกเขาไม่ได้เจ็บป วดอยู่คนเดียว และไม่ได้เผชิญกับมันตามลำพัง พวกเขาได้รู้ว่ามนุษย์ต่างโดดเดี่ยว และมนุษย์อยากมีชีวิตอยู่ ไม่ใช่ตาย
    นี่คือเรื่องราวอบอุ่นหัวใจที่จะสื่อให้เห็นว่า ทุกคนมีความพิเศษในตัวเอง และนั่นไม่ใช่ความผิดแปลกแม้แต่น้อย











    Video
    ID : 1
    Format : HEVC
    Format/Info : High Efficiency Video Coding
    Format profile : Main@L5@Main
    Codec ID : V_MPEGH/ISO/HEVC
    Duration : 58 min 45 s
    Bit rate : 4 657 kb/s
    Width : 3 840 pixels
    Height : 2 160 pixels
    Display aspect ratio : 16:9
    Frame rate mode : Constant
    Frame rate : 25.000 FPS
    Color space : YUV
    Chroma subsampling : 4:2:0
    Bit depth : 8 bits
    Bits/(Pixel*Frame) : 0.022
    Stream size : 1.91 GiB (94%)
    Default : Yes
    Forced : No
    Color range : Limited

    Audio #1
    ID : 2
    Format : AAC LC
    Format/Info : Advanced Audio Codec Low Complexity
    Codec ID : A_AAC-2
    Duration : 58 min 45 s
    Bit rate : 192 kb/s
    Channel(s) : 2 channels
    Channel layout : L R
    Sampling rate : 48.0 kHz
    Frame rate : 46.875 FPS (1024 SPF)
    Compression mode : Lossy
    Delay relative to video : -120 ms
    Stream size : 81.9 MiB (4%)
    Language : Thai
    Default : Yes
    Forced : No

    Audio #2
    ID : 3
    Format : AAC LC
    Format/Info : Advanced Audio Codec Low Complexity
    Codec ID : A_AAC-2
    Duration : 58 min 45 s
    Bit rate : 124 kb/s
    Channel(s) : 2 channels
    Channel layout : L R
    Sampling rate : 44.1 kHz
    Frame rate : 43.066 FPS (1024 SPF)
    Compression mode : Lossy
    Delay relative to video : -120 ms
    Stream size : 52.2 MiB (2%)
    Title : Mandarin
    Language : Chinese
    Default : No
    Forced : No

    Text #1
    ID : 4
    Format : UTF-8
    Codec ID : S_TEXT/UTF8
    Codec ID/Info : UTF-8 Plain Text
    Duration : 58 min 16 s
    Bit rate : 47 b/s
    Count of elements : 769
    Stream size : 20.4 KiB (0%)
    Title : 简 体 中 文
    Language : Chinese
    Default : Yes
    Forced : No

    Text #2
    ID : 5
    Format : UTF-8
    Codec ID : S_TEXT/UTF8
    Codec ID/Info : UTF-8 Plain Text
    Duration : 58 min 16 s
    Bit rate : 47 b/s
    Count of elements : 769
    Stream size : 20.4 KiB (0%)
    Title : 繁 體 中 文
    Language : Chinese
    Default : No
    Forced : No

    Text #3
    ID : 6
    Format : UTF-8
    Codec ID : S_TEXT/UTF8
    Codec ID/Info : UTF-8 Plain Text
    Duration : 58 min 42 s
    Bit rate : 53 b/s
    Count of elements : 843
    Stream size : 22.8 KiB (0%)
    Title : 英 文
    Language : English
    Default : No
    Forced : No

    Text #4
    ID : 7
    Format : UTF-8
    Codec ID : S_TEXT/UTF8
    Codec ID/Info : UTF-8 Plain Text
    Duration : 58 min 42 s
    Bit rate : 61 b/s
    Count of elements : 864
    Stream size : 26.4 KiB (0%)
    Title : 印 尼 文
    Language : Indonesian
    Default : No
    Forced : No

    Text #5
    ID : 8
    Format : UTF-8
    Codec ID : S_TEXT/UTF8
    Codec ID/Info : UTF-8 Plain Text
    Duration : 58 min 42 s
    Bit rate : 135 b/s
    Count of elements : 864
    Stream size : 58.4 KiB (0%)
    Title : 泰 文
    Language : Thai
    Default : No
    Forced : No

    Text #6
    ID : 9
    Format : UTF-8
    Codec ID : S_TEXT/UTF8
    Codec ID/Info : UTF-8 Plain Text
    Duration : 58 min 42 s
    Bit rate : 58 b/s
    Count of elements : 864
    Stream size : 25.2 KiB (0%)
    Title : 马 来 文
    Language : Malay
    Default : No
    Forced : No

    Text #7
    ID : 10
    Format : UTF-8
    Codec ID : S_TEXT/UTF8
    Codec ID/Info : UTF-8 Plain Text
    Duration : 58 min 42 s
    Bit rate : 74 b/s
    Count of elements : 864
    Stream size : 31.9 KiB (0%)
    Title : 越 南 文
    Language : Vietnamese
    Default : No
    Forced : No



    It's.Okay.It's.Love.S01E16.2160p.WEB-DL.H265.AAC-(Spark751).mkv
    http://www.filecondo.com/dl.php?f=nd11e31O2Wtf

    It's.Okay.It's.Love.S01E15.2160p.WEB-DL.H265.AAC-(Spark751).mkv
    http://www.filecondo.com/dl.php?f=qa07911O2Wsk

    It's.Okay.It's.Love.S01E14.2160p.WEB-DL.H265.AAC-(Spark751).mkv
    http://www.filecondo.com/dl.php?f=H145231O2Wrj

    It's.Okay.It's.Love.S01E13.2160p.WEB-DL.H265.AAC-(Spark751).mkv
    http://www.filecondo.com/dl.php?f=B3ffa11O2Wql

    It's.Okay.It's.Love.S01E12.2160p.WEB-DL.H265.AAC-(Spark751).mkv
    http://www.filecondo.com/dl.php?f=Ubf2e71O2WoJ

    It's.Okay.It's.Love.S01E11.2160p.WEB-DL.H265.AAC-(Spark751).mkv
    http://www.filecondo.com/dl.php?f=pf61a41O2Wnu

    It's.Okay.It's.Love.S01E10.2160p.WEB-DL.H265.AAC-(Spark751).mkv
    http://www.filecondo.com/dl.php?f=Ka75701O2WmG

    It's.Okay.It's.Love.S01E09.2160p.WEB-DL.H265.AAC-(Spark751).mkv
    http://www.filecondo.com/dl.php?f=8470c51O2Wl5

    It's.Okay.It's.Love.S01E08.2160p.WEB-DL.H265.AAC-(Spark751).mkv
    http://www.filecondo.com/dl.php?f=tbdd0a1O2WiQ

    It's.Okay.It's.Love.S01E07.2160p.WEB-DL.H265.AAC-(Spark751).mkv
    http://www.filecondo.com/dl.php?f=y522781O2WgR

    It's.Okay.It's.Love.S01E06.2160p.WEB-DL.H265.AAC-(Spark751).mkv
    http://www.filecondo.com/dl.php?f=Sbe5101O2WfI

    It's.Okay.It's.Love.S01E05.2160p.WEB-DL.H265.AAC-(Spark751).mkv
    http://www.filecondo.com/dl.php?f=G018ca1O2WcJ

    It's.Okay.It's.Love.S01E04.2160p.WEB-DL.H265.AAC-(Spark751).mkv
    http://www.filecondo.com/dl.php?f=33c5df1O2Wbs

    It's.Okay.It's.Love.S01E03.2160p.WEB-DL.H265.AAC-(Spark751).mkv
    http://www.filecondo.com/dl.php?f=xb8e601O2Wam

    It's.Okay.It's.Love.S01E02.2160p.WEB-DL.H265.AAC-(Spark751).mkv
    http://www.filecondo.com/dl.php?f=ia34031O2W9h

    It's.Okay.It's.Love.S01E01.2160p.WEB-DL.H265.AAC-(Spark751).mkv
    http://www.filecondo.com/dl.php?f=7b134f1O2W8b

  2. The Following 3 Users Say Thank You to Duckload.us For This Useful Post:

    F2UMaH6398 (07-05-2022), thelover10 (06-22-2022), whiteherbie (07-28-2022)

  3. #2
    Senior Member
    สมัครเมื่อ
    Dec 2011
    โพสต์
    3,108
    Thanks
    677
    Thanked 0 Times in 0 Posts
    Thank you ka

  4. #3
    Junior Member
    สมัครเมื่อ
    Aug 2017
    โพสต์
    18
    Thanks
    2
    Thanked 0 Times in 0 Posts
    ตอน 14-16 โหลดไม่ได้
    อัพให้ใหม่ได้มั้ยคะ

+ ตอบกลับกระทู้

ข้อมูลกระทู้

Users Browsing this Thread

ในขณะนี้มี 1 ท่านดูกระทู้อยู่. (0 สมาชิกและ 1 ผู้เยี่ยมชม)

     

กฎการโพสต์ข้อความ

  • ท่าน ไม่สามารถ ตั้งกระทู้ใหม่ได้
  • ท่าน ไม่สามารถ ตอบกระทู้ได้
  • ท่าน ไม่สามารถ แนบไฟล์ได้
  • ท่าน ไม่สามารถ แก้ไขข้อความโพสต์ได้
  • BB code สถานะ เปิด
  • Smilies สถานะ เปิด
  • [IMG] สถานะ เปิด
  • HTML สถานะ ปิด