+ ตอบกลับกระทู้
สรุปผลการค้นหา 1 ถึง 3 จากทั้งหมด 3
  1. #1
    Administrators รูปส่วนตัว Duckload.us
    สมัครเมื่อ
    Dec 2010
    โพสต์
    136,553
    Thanks
    7
    Thanked 141,368 Times in 61,965 Posts

    Thumbs up [ฝรั่ง]-[DISNEY+] Doctor Strange in the Multiverse of Madness (2022) จอมเวทย์มหากาฬ ในมัลติเวิร์สมหาภัย-WEB-DL.EAC-3.Atmos.1080p. [Modified]-[พากย์อังกฤษ Atmos 5.1 บรรยายไทย (Master)-อังกฤษ]



    จอมเวทย์มหากาฬในมัลติเวิร์สมหาภัย ได้ปลดล็อกพหุจักรวาลใน MCU ให้ก้าวข้ามขีดจำกัดมากยิ่งขึ้นกว่าที่เคยมีมา เดินทางไปสู่มิติที่มิอาจหยั่งรู้ได้กับ ด็อกเตอร์สเตรนจ์ กับสหายผู้มีพลังพิเศษทั้งหน้าเก่าและหน้าใหม่ ที่จะมาร่วมเดินทางไปในพหุจักรวาลที่แสนบิดเบี้ยวและ อันตราย เพื่อเผชิญหน้ากับศัตรูลึกลับในครั้งนี้

    Format : Matroska
    Format version : Version 4
    File size : 4.23 GiB
    Duration : 2 h 6 min
    Overall bit rate : 4 786 kb/s
    Encoded date : UTC 2022-06-21 17:25:40
    Writing application : mkvmerge v55.0.0 ('Waiting For Space') 64-bit
    Writing library : libebml v1.4.2 + libmatroska v1.6.4

    Video
    ID : 1
    Format : AVC
    Format/Info : Advanced Video Codec
    Format profile : [email protected]
    Format settings : CABAC / 3 Ref Frames
    Format settings, CABAC : Yes
    Format settings, Reference : 3 frames
    Codec ID : V_MPEG4/ISO/AVC
    Duration : 2 h 6 min
    Bit rate : 4 002 kb/s
    Width : 1 920 pixels
    Height : 804 pixels
    Display aspect ratio : 2.40:1
    Frame rate mode : Constant
    Frame rate : 23.976 (24000/1001) FPS
    Color space : YUV
    Chroma subsampling : 4:2:0
    Bit depth : 8 bits
    Scan type : Progressive
    Bits/(Pixel*Frame) : 0.108
    Stream size : 3.54 GiB (84%)
    Language : English
    Default : Yes
    Forced : No
    Color range : Limited
    Color primaries : BT.709
    Transfer characteristics : BT.709
    Matrix coefficients : BT.709

    Audio
    ID : 2
    Format : E-AC-3 JOC
    Format/Info : Enhanced AC-3 with Joint Object Coding
    Commercial name : Dolby Digital Plus with Dolby Atmos
    Codec ID : A_EAC3
    Duration : 2 h 6 min
    Bit rate mode : Constant
    Bit rate : 768 kb/s
    Channel(s) : 6 channels
    Channel layout : L R C LFE Ls Rs
    Sampling rate : 48.0 kHz
    Frame rate : 31.250 FPS (1536 SPF)
    Compression mode : Lossy
    Stream size : 695 MiB (16%)
    Title : E-AC3 Atmos English
    Language : English
    Service kind : Complete Main
    Default : Yes
    Forced : No
    Complexity index : 16
    Number of dynamic objects : 15
    Bed channel count : 1 channel
    Bed channel configuration : LFE

    Text #1
    ID : 3
    Format : VobSub
    Muxing mode : zlib
    Codec ID : S_VOBSUB
    Codec ID/Info : Picture based subtitle format used on DVDs
    Duration : 2 h 5 min
    Bit rate : 7 160 b/s
    Count of elements : 1262
    Stream size : 6.41 MiB (0%)
    Title : Sub Thai 1080p
    Language : Thai
    Default : No
    Forced : No

    Text #2
    ID : 4
    Format : UTF-8
    Codec ID : S_TEXT/UTF8
    Codec ID/Info : UTF-8 Plain Text
    Duration : 2 h 5 min
    Bit rate : 74 b/s
    Count of elements : 1262
    Stream size : 68.3 KiB (0%)
    Title : Sub Thai SRT
    Language : Thai
    Default : No
    Forced : No

    Text #3
    ID : 5
    Format : PGS
    Muxing mode : zlib
    Codec ID : S_HDMV/PGS
    Codec ID/Info : Picture based subtitle format used on BDs/HD-DVDs
    Duration : 2 h 5 min
    Bit rate : 22.1 kb/s
    Count of elements : 2524
    Stream size : 19.8 MiB (0%)
    Title : Sub Thai PGS
    Language : Thai
    Default : Yes
    Forced : No

    Text #4
    ID : 6
    Format : UTF-8
    Codec ID : S_TEXT/UTF8
    Codec ID/Info : UTF-8 Plain Text
    Duration : 2 h 5 min
    Bit rate : 37 b/s
    Count of elements : 1249
    Stream size : 34.1 KiB (0%)
    Title : Sub English SRT
    Language : English
    Default : No
    Forced : No







    Download:filecondo
    Doctor_Strange_in_the_Multiverse_of_Madness_(2022) .mkv
    http://www.filecondo.com/dl.php?f=v87cf11O3X2q
    Doctor.Strange.in.the.Multiverse.of.Madness.2022.1 080p.WEBRip.DDP5.1.Atmos.x264.mkv
    http://www.filecondo.com/dl.php?f=ebb3c21O3Xrj

    Download:cornfile
    Doctor Strange in the Multiverse of Madness (2022).mkv - 4.2 GB
    Doctor.Strange.in.the.Multiverse.of.Madness.2022.1 080p.WEBRip.DDP5.1.Atmos.x264.mkv - 9.3 GB

  2. The Following 2 Users Say Thank You to Duckload.us For This Useful Post:

    nananass (06-23-2022), noi54 (06-23-2022)

  3. #2
    Senior Member
    สมัครเมื่อ
    Jan 2011
    โพสต์
    804
    Thanks
    1,096
    Thanked 0 Times in 0 Posts
    ขอบคุณครับ

  4. #3
    Senior Member
    สมัครเมื่อ
    Jun 2012
    โพสต์
    1,581
    Thanks
    0
    Thanked 1 Time in 1 Post
    ขอบคุณครับ

+ ตอบกลับกระทู้

ข้อมูลกระทู้

Users Browsing this Thread

ในขณะนี้มี 1 ท่านดูกระทู้อยู่. (0 สมาชิกและ 1 ผู้เยี่ยมชม)

     

กฎการโพสต์ข้อความ

  • ท่าน ไม่สามารถ ตั้งกระทู้ใหม่ได้
  • ท่าน ไม่สามารถ ตอบกระทู้ได้
  • ท่าน ไม่สามารถ แนบไฟล์ได้
  • ท่าน ไม่สามารถ แก้ไขข้อความโพสต์ได้
  • BB code สถานะ เปิด
  • Smilies สถานะ เปิด
  • [IMG] สถานะ เปิด
  • HTML สถานะ ปิด