+ ตอบกลับกระทู้
สรุปผลการค้นหา 1 ถึง 2 จากทั้งหมด 2
  1. #1
    Administrators รูปส่วนตัว Duckload.us
    สมัครเมื่อ
    Dec 2010
    โพสต์
    136,553
    Thanks
    7
    Thanked 141,368 Times in 61,965 Posts

    Thumbs up (2022 Netflix Presents MASTERED เสียงไทย)__LOVE AND GELATO / ความรักกับเจลาโต้__[IMDB:TBA - FullHD 1080p -> Comedy , Drama , Romance <]



    PLOT: Lina makes a promise to her sick mother that she'll spend the summer before college in Rome, where she falls for the city, the people - and the "gelato".

    การให้คำมั่นสัญญากับมารดาที่ป่วยซึ่งเป็นนักเรียนเต รียมแพทย์ มีช่วงฤดูร้อนตลอดชีวิตในกรุงโรม โดยใช้บันทึกเก่าของแม่เป็นแนวทางขณะที่เธอค่อยๆ ตกหลุมรักเสน่ห์ของเมือง ผู้คนในเมือง และแน่นอนว่าเจลาโต้ จากนวนิยายขายดี Love & Gelato นำเสนอ Susanna Skaggs, Saul Nanni และ Tobia De Angelis.

    Format : Matroska
    Format version : Version 4
    File size : 6.67 GiB
    Duration : 1 h 52 min
    Overall bit rate mode : Variable
    Overall bit rate : 8 507 kb/s
    Movie name : ความรักกับเจลาโต้
    Description : เพื่อเติมเต็มคำขอสุดท้ายของผู้เป็นแม่ตามสัญญา ลีน่าใช้เวลาช่วงหน้าร้อนในโรมก่อนเข้าเรียนมหาวิทยา ลัย ซึ่งทำให้เธอได้พบรัก ผจญภัย และมอบหัวใจให้เจลาโต้
    Writing application : Lavf58.29.100
    Writing library : Lavf58.29.100
    ErrorDetectionType : Per level 1
    Attachments : 81278276.jpg
    DATE : 2022

    Video
    ID : 1
    Format : AVC
    Format/Info : Advanced Video Codec
    Format profile : [email protected]
    Format settings : CABAC / 1 Ref Frames
    Format settings, CABAC : Yes
    Format settings, Reference frames : 1 frame
    Codec ID : V_MPEG4/ISO/AVC
    Duration : 1 h 52 min
    Bit rate mode : Variable
    Maximum bit rate : 6 000 kb/s
    Width : 1 920 pixels
    Height : 1 080 pixels
    Display aspect ratio : 16:9
    Frame rate mode : Constant
    Frame rate : 24.000 FPS
    Color space : YUV
    Chroma subsampling : 4:2:0
    Bit depth : 8 bits
    Scan type : Progressive
    Default : No
    Forced : No

    Audio #1
    ID : 2
    Format : E-AC-3
    Format/Info : Enhanced AC-3
    Commercial name : Dolby Digital Plus
    Codec ID : A_EAC3
    Duration : 1 h 52 min
    Bit rate mode : Constant
    Bit rate : 640 kb/s
    Channel(s) : 6 channels
    Channel layout : L R C LFE Ls Rs
    Sampling rate : 48.0 kHz
    Frame rate : 31.250 FPS (1536 SPF)
    Bit depth : 32 bits
    Compression mode : Lossy
    Delay relative to video : -83 ms
    Stream size : 514 MiB (8%)
    Title : ไทย
    Language : Thai
    Service kind : Complete Main
    Default : Yes
    Forced : No

    Audio #2
    ID : 3
    Format : E-AC-3
    Format/Info : Enhanced AC-3
    Commercial name : Dolby Digital Plus
    Codec ID : A_EAC3
    Duration : 1 h 52 min
    Bit rate mode : Constant
    Bit rate : 640 kb/s
    Channel(s) : 6 channels
    Channel layout : L R C LFE Ls Rs
    Sampling rate : 48.0 kHz
    Frame rate : 31.250 FPS (1536 SPF)
    Bit depth : 32 bits
    Compression mode : Lossy
    Delay relative to video : -83 ms
    Stream size : 514 MiB (8%)
    Title : อิตาลี - คำอธิบายเสียง
    Language : Italian
    Service kind : Complete Main
    Default : No
    Forced : No

    Audio #3
    ID : 4
    Format : E-AC-3
    Format/Info : Enhanced AC-3
    Commercial name : Dolby Digital Plus
    Codec ID : A_EAC3
    Duration : 1 h 52 min
    Bit rate mode : Constant
    Bit rate : 640 kb/s
    Channel(s) : 6 channels
    Channel layout : L R C LFE Ls Rs
    Sampling rate : 48.0 kHz
    Frame rate : 31.250 FPS (1536 SPF)
    Bit depth : 32 bits
    Compression mode : Lossy
    Delay relative to video : -83 ms
    Stream size : 514 MiB (8%)
    Title : อิตาลี
    Language : Italian
    Service kind : Complete Main
    Default : No
    Forced : No

    Audio #4
    ID : 5
    Format : E-AC-3
    Format/Info : Enhanced AC-3
    Commercial name : Dolby Digital Plus
    Codec ID : A_EAC3
    Duration : 1 h 52 min
    Bit rate mode : Constant
    Bit rate : 192 kb/s
    Channel(s) : 6 channels
    Channel layout : L R C LFE Ls Rs
    Sampling rate : 48.0 kHz
    Frame rate : 31.250 FPS (1536 SPF)
    Bit depth : 32 bits
    Compression mode : Lossy
    Delay relative to video : -83 ms
    Stream size : 154 MiB (2%)
    Title : ไทย
    Language : Thai
    Service kind : Complete Main
    Default : Yes
    Forced : No

    Audio #5
    ID : 6
    Format : AAC LC SBR
    Format/Info : Advanced Audio Codec Low Complexity with Spectral Band Replication
    Commercial name : HE-AAC
    Format settings : Explicit
    Codec ID : A_AAC-2
    Duration : 1 h 52 min
    Channel(s) : 6 channels
    Channel layout : C L R Ls Rs LFE
    Sampling rate : 48.0 kHz
    Frame rate : 23.438 FPS (2048 SPF)
    Compression mode : Lossy
    Delay relative to video : -83 ms
    Title : ไทย
    Language : Thai
    Default : Yes
    Forced : No

    Audio #6
    ID : 7
    Format : AAC LC SBR
    Format/Info : Advanced Audio Codec Low Complexity with Spectral Band Replication
    Commercial name : HE-AAC
    Format settings : Explicit
    Codec ID : A_AAC-2
    Duration : 1 h 52 min
    Channel(s) : 6 channels
    Channel layout : C L R Ls Rs LFE
    Sampling rate : 48.0 kHz
    Frame rate : 23.438 FPS (2048 SPF)
    Compression mode : Lossy
    Delay relative to video : -83 ms
    Title : อิตาลี - คำอธิบายเสียง
    Language : Italian
    Default : No
    Forced : No

    Audio #7
    ID : 8
    Format : E-AC-3
    Format/Info : Enhanced AC-3
    Commercial name : Dolby Digital Plus
    Codec ID : A_EAC3
    Duration : 1 h 52 min
    Bit rate mode : Constant
    Bit rate : 192 kb/s
    Channel(s) : 6 channels
    Channel layout : L R C LFE Ls Rs
    Sampling rate : 48.0 kHz
    Frame rate : 31.250 FPS (1536 SPF)
    Bit depth : 32 bits
    Compression mode : Lossy
    Delay relative to video : -83 ms
    Stream size : 154 MiB (2%)
    Title : อิตาลี - คำอธิบายเสียง
    Language : Italian
    Service kind : Complete Main
    Default : No
    Forced : No

    Audio #8
    ID : 9
    Format : E-AC-3
    Format/Info : Enhanced AC-3
    Commercial name : Dolby Digital Plus
    Codec ID : A_EAC3
    Duration : 1 h 52 min
    Bit rate mode : Constant
    Bit rate : 192 kb/s
    Channel(s) : 6 channels
    Channel layout : L R C LFE Ls Rs
    Sampling rate : 48.0 kHz
    Frame rate : 31.250 FPS (1536 SPF)
    Bit depth : 32 bits
    Compression mode : Lossy
    Delay relative to video : -83 ms
    Stream size : 154 MiB (2%)
    Title : อิตาลี
    Language : Italian
    Service kind : Complete Main
    Default : No
    Forced : No

    Audio #9
    ID : 10
    Format : AAC LC SBR
    Format/Info : Advanced Audio Codec Low Complexity with Spectral Band Replication
    Commercial name : HE-AAC
    Format settings : Explicit
    Codec ID : A_AAC-2
    Duration : 1 h 52 min
    Channel(s) : 6 channels
    Channel layout : C L R Ls Rs LFE
    Sampling rate : 48.0 kHz
    Frame rate : 23.438 FPS (2048 SPF)
    Compression mode : Lossy
    Delay relative to video : -83 ms
    Title : อิตาลี
    Language : Italian
    Default : No
    Forced : No

    Audio #10
    ID : 11
    Format : AAC LC SBR
    Format/Info : Advanced Audio Codec Low Complexity with Spectral Band Replication
    Commercial name : HE-AAC
    Format settings : Explicit
    Codec ID : A_AAC-2
    Duration : 1 h 52 min
    Channel(s) : 2 channels
    Channel layout : L R
    Sampling rate : 48.0 kHz
    Frame rate : 23.438 FPS (2048 SPF)
    Compression mode : Lossy
    Delay relative to video : -83 ms
    Title : ไทย
    Language : Thai
    Default : No
    Forced : No

    Audio #11
    ID : 12
    Format : AAC LC SBR
    Format/Info : Advanced Audio Codec Low Complexity with Spectral Band Replication
    Commercial name : HE-AAC
    Format settings : Explicit
    Codec ID : A_AAC-2
    Duration : 1 h 52 min
    Channel(s) : 2 channels
    Channel layout : L R
    Sampling rate : 48.0 kHz
    Frame rate : 23.438 FPS (2048 SPF)
    Compression mode : Lossy
    Delay relative to video : -83 ms
    Title : อิตาลี
    Language : Italian
    Default : No
    Forced : No

    Audio #12
    ID : 13
    Format : AAC LC SBR
    Format/Info : Advanced Audio Codec Low Complexity with Spectral Band Replication
    Commercial name : HE-AAC
    Format settings : Explicit
    Codec ID : A_AAC-2
    Duration : 1 h 52 min
    Channel(s) : 2 channels
    Channel layout : L R
    Sampling rate : 48.0 kHz
    Frame rate : 23.438 FPS (2048 SPF)
    Compression mode : Lossy
    Delay relative to video : -83 ms
    Title : อิตาลี - คำอธิบายเสียง
    Language : Italian
    Default : No
    Forced : No

    Audio #13
    ID : 14
    Format : AAC LC SBR
    Format/Info : Advanced Audio Codec Low Complexity with Spectral Band Replication
    Commercial name : HE-AAC
    Format settings : Explicit
    Codec ID : A_AAC-2
    Duration : 1 h 52 min
    Channel(s) : 2 channels
    Channel layout : L R
    Sampling rate : 48.0 kHz
    Frame rate : 23.438 FPS (2048 SPF)
    Compression mode : Lossy
    Delay relative to video : -83 ms
    Title : ไทย
    Language : Thai
    Default : No
    Forced : No

    Audio #14
    ID : 15
    Format : AAC LC SBR
    Format/Info : Advanced Audio Codec Low Complexity with Spectral Band Replication
    Commercial name : HE-AAC
    Format settings : Explicit
    Codec ID : A_AAC-2
    Duration : 1 h 52 min
    Channel(s) : 2 channels
    Channel layout : L R
    Sampling rate : 48.0 kHz
    Frame rate : 23.438 FPS (2048 SPF)
    Compression mode : Lossy
    Delay relative to video : -83 ms
    Title : อิตาลี
    Language : Italian
    Default : No
    Forced : No

    Audio #15
    ID : 16
    Format : AAC LC SBR
    Format/Info : Advanced Audio Codec Low Complexity with Spectral Band Replication
    Commercial name : HE-AAC
    Format settings : Explicit
    Codec ID : A_AAC-2
    Duration : 1 h 52 min
    Channel(s) : 2 channels
    Channel layout : L R
    Sampling rate : 48.0 kHz
    Frame rate : 23.438 FPS (2048 SPF)
    Compression mode : Lossy
    Delay relative to video : -83 ms
    Title : อิตาลี - คำอธิบายเสียง
    Language : Italian
    Default : No
    Forced : No

    Text #1
    ID : 17
    Format : VobSub
    Codec ID : S_VOBSUB
    Codec ID/Info : Picture based subtitle format used on DVDs
    Duration : 1 h 45 min
    Title : Thai
    Language : Thai
    Default : No
    Forced : No

    Text #2
    ID : 18
    Format : ASS
    Codec ID : S_TEXT/ASS
    Codec ID/Info : Advanced Sub Station Alpha
    Duration : 1 h 45 min
    Compression mode : Lossless
    Title : Thai
    Language : Thai
    Default : No
    Forced : No

    Text #3
    ID : 19
    Format : ASS
    Codec ID : S_TEXT/ASS
    Codec ID/Info : Advanced Sub Station Alpha
    Duration : 1 h 45 min
    Compression mode : Lossless
    Title : English (Forced Narrative)
    Language : English
    Default : No
    Forced : No

    Text #4
    ID : 20
    Format : ASS
    Codec ID : S_TEXT/ASS
    Codec ID/Info : Advanced Sub Station Alpha
    Duration : 1 h 50 min
    Compression mode : Lossless
    Title : Italiano (Forced Narrative)
    Language : Italian
    Default : No
    Forced : No

    Text #5
    ID : 21
    Format : ASS
    Codec ID : S_TEXT/ASS
    Codec ID/Info : Advanced Sub Station Alpha
    Duration : 1 h 47 min
    Compression mode : Lossless
    Title : English (CC)
    Language : English
    Default : No
    Forced : No

    Text #6
    ID : 22
    Format : VobSub
    Codec ID : S_VOBSUB
    Codec ID/Info : Picture based subtitle format used on DVDs
    Duration : 1 h 43 min
    Title : Thai (Forced Narrative)
    Language : Thai
    Default : No
    Forced : No

    Text #7
    ID : 23
    Format : ASS
    Codec ID : S_TEXT/ASS
    Codec ID/Info : Advanced Sub Station Alpha
    Duration : 1 h 43 min
    Compression mode : Lossless
    Title : Thai (Forced Narrative)
    Language : Thai
    Default : No
    Forced : No






    Download:filecondo
    http://www.filecondo.com/dl.php?f=V11c4c1O4kSG
    Download:cornfile
    https://www.cornfile.com/yo0sr6h3rydx

  2. The Following User Says Thank You to Duckload.us For This Useful Post:

    noi54 (06-24-2022)

  3. #2
    Senior Member
    สมัครเมื่อ
    Jul 2013
    โพสต์
    3,335
    Thanks
    0
    Thanked 0 Times in 0 Posts
    ขอบคุณครับ

+ ตอบกลับกระทู้

ข้อมูลกระทู้

Users Browsing this Thread

ในขณะนี้มี 1 ท่านดูกระทู้อยู่. (0 สมาชิกและ 1 ผู้เยี่ยมชม)

     

กฎการโพสต์ข้อความ

  • ท่าน ไม่สามารถ ตั้งกระทู้ใหม่ได้
  • ท่าน ไม่สามารถ ตอบกระทู้ได้
  • ท่าน ไม่สามารถ แนบไฟล์ได้
  • ท่าน ไม่สามารถ แก้ไขข้อความโพสต์ได้
  • BB code สถานะ เปิด
  • Smilies สถานะ เปิด
  • [IMG] สถานะ เปิด
  • HTML สถานะ ปิด