+ ตอบกลับกระทู้
สรุปผลการค้นหา 1 ถึง 2 จากทั้งหมด 2
  1. #1
    Administrators รูปส่วนตัว Duckload.us
    สมัครเมื่อ
    Dec 2010
    โพสต์
    136,553
    Thanks
    7
    Thanked 141,368 Times in 61,965 Posts

    Thumbs up [ฝรั่ง]-Doctor Strange in the Multiverse of Madness (2022) จอมเวทย์มหากาฬ ในมัลติเวิร์สมหาภัย-WEB-DL.H.264.1080p. [Modified]-[พากย์ไทยโรง-บรรยายไทย มาสเตอร์]


    Quote:
    จอมเวทย์มหากาฬในมัลติเวิร์สมหาภัย ได้ปลดล็อกพหุจักรวาลใน MCU ให้ก้าวข้ามขีดจำกัดมากยิ่งขึ้นกว่าที่เคยมีมา เดินทางไปสู่มิติที่มิอาจหยั่งรู้ได้กับ ด็อกเตอร์สเตรนจ์ กับสหายผู้มีพลังพิเศษทั้งหน้าเก่าและหน้าใหม่ ที่จะมาร่วมเดินทางไปในพหุจักรวาลที่แสนบิดเบี้ยวและ อันตราย เพื่อเผชิญหน้ากับศัตรูลึกลับในครั้งนี้

    General
    Complete name : F:/Movies/Doctor Strange in the Multiverse of Madness (2022) ??????????????.1080p.WEBRip.x264.AAC5.1 @bURIN.mkv
    Format : Matroska
    Format version : Version 4
    File size : 3.36 GiB
    Duration : 2 h 6 min
    Overall bit rate : 3 807 kb/s
    Movie name : Doctor Strange in the Multiverse of Madness (2022) ??????????????.1080p.WEBRip.x264.AAC5.1 @bURIN
    Encoded date : UTC 2022-06-23 07:38:23
    Writing application : mkvmerge v68.0.0 ('The Curtain') 32-bit
    Writing library : libebml v1.4.2 + libmatroska v1.6.4

    Video
    ID : 1
    Format : AVC
    Format/Info : Advanced Video Codec
    Format profile : [email protected]
    Format settings : CABAC / 4 Ref Frames
    Format settings, CABAC : Yes
    Format settings, Reference frames : 4 frames
    Codec ID : V_MPEG4/ISO/AVC
    Duration : 2 h 6 min
    Bit rate : 2 250 kb/s
    Width : 1 920 pixels
    Height : 804 pixels
    Display aspect ratio : 2.40:1
    Frame rate mode : Constant
    Frame rate : 23.976 (24000/1001) FPS
    Color space : YUV
    Chroma subsampling : 4:2:0
    Bit depth : 8 bits
    Scan type : Progressive
    Bits/(Pixel*Frame) : 0.061
    Stream size : 1.99 GiB (59%)
    Writing library : x264 core 161
    Encoding settings : cabac=1 / ref=4 / deblock=1:-1:-1 / analyse=0x3:0x133 / me=umh / subme=9 / psy=1 / psy_rd=1.00:0.15 / mixed_ref=1 / me_range=24 / chroma_me=1 / trellis=2 / 8x8dct=1 / cqm=0 / deadzone=21,11 / fast_pskip=0 / chroma_qp_offset=-3 / threads=24 / lookahead_threads=2 / sliced_threads=0 / nr=0 / decimate=1 / interlaced=0 / bluray_compat=0 / constrained_intra=0 / bframes=3 / b_pyramid=2 / b_adapt=2 / b_bias=0 / direct=3 / weightb=1 / open_gop=0 / weightp=2 / keyint=250 / keyint_min=23 / scenecut=40 / intra_refresh=0 / rc_lookahead=60 / rc=2pass / mbtree=1 / bitrate=2250 / ratetol=1.0 / qcomp=0.60 / qpmin=0 / qpmax=69 / qpstep=4 / cplxblur=20.0 / qblur=0.5 / vbv_maxrate=31250 / vbv_bufsize=31250 / nal_hrd=none / filler=0 / ip_ratio=1.40 / aq=1:1.00
    Default : Yes
    Forced : No
    Color range : Limited
    Color primaries : BT.709
    Transfer characteristics : BT.709
    Matrix coefficients : BT.709

    Audio #1
    ID : 2
    Format : AAC LC
    Format/Info : Advanced Audio Codec Low Complexity
    Codec ID : A_AAC-2
    Duration : 2 h 6 min
    Bit rate : 384 kb/s
    Channel(s) : 6 channels
    Channel layout : C L R Ls Rs LFE
    Sampling rate : 48.0 kHz
    Frame rate : 46.875 FPS (1024 SPF)
    Compression mode : Lossy
    Delay relative to video : -43 ms
    Stream size : 348 MiB (10%)
    Title : ??????
    Language : English
    Default : No
    Forced : No

    Audio #2
    ID : 3
    Format : E-AC-3 JOC
    Format/Info : Enhanced AC-3 with Joint Object Coding
    Commercial name : Dolby Digital Plus with Dolby Atmos
    Codec ID : A_EAC3
    Duration : 2 h 6 min
    Bit rate mode : Constant
    Bit rate : 768 kb/s
    Channel(s) : 6 channels
    Channel layout : L R C LFE Ls Rs
    Sampling rate : 48.0 kHz
    Frame rate : 31.250 FPS (1536 SPF)
    Compression mode : Lossy
    Delay relative to video : -43 ms
    Stream size : 695 MiB (20%)
    Title : E-AC3 Atmos ??????
    Language : English
    Service kind : Complete Main
    Default : No
    Forced : No
    Complexity index : 16
    Number of dynamic objects : 15
    Bed channel count : 1 channel
    Bed channel configuration : LFE

    Audio #3
    ID : 4
    Format : AAC LC
    Format/Info : Advanced Audio Codec Low Complexity
    Codec ID : A_AAC-2
    Duration : 2 h 6 min
    Bit rate : 384 kb/s
    Channel(s) : 6 channels
    Channel layout : C L R Ls Rs LFE
    Sampling rate : 48.0 kHz
    Frame rate : 46.875 FPS (1024 SPF)
    Compression mode : Lossy
    Delay relative to video : -43 ms
    Stream size : 346 MiB (10%)
    Title : ???
    Language : Thai
    Default : Yes
    Forced : No

    Text #1
    ID : 5
    Format : UTF-8
    Codec ID : S_TEXT/UTF8
    Codec ID/Info : UTF-8 Plain Text
    Duration : 2 h 5 min
    Bit rate : 74 b/s
    Count of elements : 1262
    Stream size : 68.3 KiB (0%)
    Title : ??? SRT
    Language : Thai
    Default : No
    Forced : No

    Text #2
    ID : 6
    Format : PGS
    Muxing mode : zlib
    Codec ID : S_HDMV/PGS
    Codec ID/Info : Picture based subtitle format used on BDs/HD-DVDs
    Duration : 2 h 5 min
    Bit rate : 22.1 kb/s
    Count of elements : 2524
    Stream size : 19.8 MiB (1%)
    Title : ???? PGS
    Language : Thai
    Default : Yes
    Forced : No

    Text #3
    ID : 7
    Format : UTF-8
    Codec ID : S_TEXT/UTF8
    Codec ID/Info : UTF-8 Plain Text
    Duration : 2 h 5 min
    Bit rate : 37 b/s
    Count of elements : 1249
    Stream size : 34.1 KiB (0%)
    Title : ?????? SRT
    Language : English
    Default : No
    Forced : No

    Text #4
    ID : 8
    Format : PGS
    Muxing mode : zlib
    Codec ID : S_HDMV/PGS
    Codec ID/Info : Picture based subtitle format used on BDs/HD-DVDs
    Duration : 2 h 5 min
    Bit rate : 17.5 kb/s
    Count of elements : 2524
    Stream size : 15.6 MiB (0%)
    Title : ????????? PGS
    Language : Thai
    Default : No
    Forced : No



    Download:filecondo
    http://www.filecondo.com/dl.php?f=ad86401O4lN4
    Download:cornfile
    We're sorry, there are no servers available for upload at the moment.
    Refresh this page in some minutes.

  2. #2
    Senior Member
    สมัครเมื่อ
    Jul 2013
    โพสต์
    3,335
    Thanks
    0
    Thanked 0 Times in 0 Posts
    ขอบคุณครับ พี่ corn เป็นอะไรอีกแล้ว ดีนะที่ยังไม่ได้เติม

+ ตอบกลับกระทู้

ข้อมูลกระทู้

Users Browsing this Thread

ในขณะนี้มี 1 ท่านดูกระทู้อยู่. (0 สมาชิกและ 1 ผู้เยี่ยมชม)

     

กฎการโพสต์ข้อความ

  • ท่าน ไม่สามารถ ตั้งกระทู้ใหม่ได้
  • ท่าน ไม่สามารถ ตอบกระทู้ได้
  • ท่าน ไม่สามารถ แนบไฟล์ได้
  • ท่าน ไม่สามารถ แก้ไขข้อความโพสต์ได้
  • BB code สถานะ เปิด
  • Smilies สถานะ เปิด
  • [IMG] สถานะ เปิด
  • HTML สถานะ ปิด