+ ตอบกลับกระทู้
สรุปผลการค้นหา 1 ถึง 8 จากทั้งหมด 8
  1. #1
    Administrators รูปส่วนตัว Duckload.us
    สมัครเมื่อ
    Dec 2010
    โพสต์
    137,492
    Thanks
    7
    Thanked 143,437 Times in 62,400 Posts

    Thumbs up [ฝรั่ง]-[* ใหม่*] Doctor Strange in the Multiverse of Madness (2022) จอมเวทย์มหากาฬ ในมัลติเวิร์สมหาภัย [ DSNP IMAX 1080p WEB-DL ]-[ เสียง : TH 5.1 DDP - EN 5.1 DDP Atmos ]-[ คำบรรยาย : TH - EN ]



    เรื่องย่อ : จอมเวทย์มหากาฬในมัลติเวิร์สมหาภัย ได้ปลดล็อกพหุจักรวาลใน MCU ให้ก้าวข้ามขีดจำกัดมากยิ่งขึ้นกว่าที่เคยมีมา เดินทางไปสู่มิติที่มิอาจหยั่งรู้ได้กับ ด็อกเตอร์สเตรนจ์ กับสหายผู้มีพลังพิเศษทั้งหน้าเก่าและหน้าใหม่ ที่จะมาร่วมเดินทางไปในพหุจักรวาลที่แสนบิดเบี้ยวและ อันตราย เพื่อเผชิญหน้ากับศัตรูลึกลับในครั้งนี้

    ID : 1
    Format : AVC
    Format/Info : Advanced Video Codec
    Format profile : [email protected]
    Format settings : CABAC / 4 Ref Frames
    Format settings, CABAC : Yes
    Format settings, Reference : 4 frames
    Codec ID : V_MPEG4/ISO/AVC
    Duration : 2 h 6 min
    Bit rate mode : Variable
    Bit rate : 7 488 kb/s
    Maximum bit rate : 12.7 Mb/s
    Width : 1 920 pixels
    Height : 1 080 pixels
    Display aspect ratio : 16:9
    Frame rate mode : Constant
    Frame rate : 23.976 (24000/1001) FPS
    Color space : YUV
    Chroma subsampling : 4:2:0
    Bit depth : 8 bits
    Scan type : Progressive
    Bits/(Pixel*Frame) : 0.151
    Stream size : 6.62 GiB (88%)
    Language : English
    Default : Yes
    Forced : No
    Color range : Limited
    Color primaries : BT.709
    Transfer characteristics : BT.709
    Matrix coefficients : BT.709

    Audio #1
    ID : 2
    Format : E-AC-3
    Format/Info : Enhanced AC-3
    Commercial name : Dolby Digital Plus
    Codec ID : A_EAC3
    Duration : 2 h 6 min
    Bit rate mode : Constant
    Bit rate : 192 kb/s
    Channel(s) : 6 channels
    Channel layout : L R C LFE Ls Rs
    Sampling rate : 48.0 kHz
    Frame rate : 31.250 FPS (1536 SPF)
    Compression mode : Lossy
    Stream size : 174 MiB (2%)
    Title : TH 5.1 DDP : MRJ
    Language : Thai
    Service kind : Complete Main
    Default : Yes
    Forced : No

    Audio #2
    ID : 3
    Format : E-AC-3 JOC
    Format/Info : Enhanced AC-3 with Joint Object Coding
    Commercial name : Dolby Digital Plus with Dolby Atmos
    Codec ID : A_EAC3
    Duration : 2 h 6 min
    Bit rate mode : Constant
    Bit rate : 768 kb/s
    Channel(s) : 6 channels
    Channel layout : L R C LFE Ls Rs
    Sampling rate : 48.0 kHz
    Frame rate : 31.250 FPS (1536 SPF)
    Compression mode : Lossy
    Stream size : 695 MiB (9%)
    Title : EN 5.1 DDP Atmos
    Language : English
    Service kind : Complete Main
    Default : No
    Forced : No
    Complexity index : 16
    Number of dynamic objects : 15
    Bed channel count : 1 channel
    Bed channel configuration : LFE

    Text #1
    ID : 4
    Format : PGS
    Muxing mode : zlib
    Codec ID : S_HDMV/PGS
    Codec ID/Info : Picture based subtitle format used on BDs/HD-DVDs
    Duration : 2 h 6 min
    Bit rate : 20.3 kb/s
    Count of elements : 2528
    Stream size : 18.3 MiB (0%)
    Title : TH 1080p
    Language : Thai
    Default : Yes
    Forced : No

    Text #2
    ID : 5
    Format : PGS
    Muxing mode : zlib
    Codec ID : S_HDMV/PGS
    Codec ID/Info : Picture based subtitle format used on BDs/HD-DVDs
    Duration : 2 h 5 min
    Bit rate : 22.7 kb/s
    Count of elements : 2498
    Stream size : 20.3 MiB (0%)
    Title : EN 1080p
    Language : English
    Default : No
    Forced : No



    Download:filecondo
    Doctor.Strange.in.the.Multiverse.of.Madness.2022.I MAX.1080p.DSNP.WEBDL.H.264.AAC.mkv
    http://www.filecondo.com/dl.php?f=Qbe9a81O4Bd2

    Doctor.Strange.In.The.Multiverse.Of.Madness.2022.1 080p.WEB-DL.x264_GOLD_CUP.mkv
    http://www.filecondo.com/dl.php?f=Nbeea51O4B4d

    Doctor.Strange.In.The.Multiverse.Of.Madness.2022.1 080p.10bit.IMAX.DSNP.WEB-DL.60FPS.x265.HEVC.mkv
    http://www.filecondo.com/dl.php?f=Qf799b1O4B0H

    Doctor.Strange.in.the.Multiverse.of.Madness.2022.I MAX.1080p.DSNP.WEB-DL.TH5.1.DDP.EN5.1.DDP.Atmos.H.264-MRJ.mkv
    http://www.filecondo.com/dl.php?f=Rd6eb21O4A4p

    Download:cornfile
    Doctor Strange in the Multiverse of Madness (2022).mkv - 3.4 GB
    Doctor.Strange.In.The.Multiverse.Of.Madness.2022.1 080p.10bit.IMAX.DSNP.WEB-DL.60FPS.x265.HEVC.mkv - 5.1 GB
    Doctor.Strange.In.The.Multiverse.Of.Madness.2022.1 080p.WEB-DL.x264_GOLD CUP.mkv - 4.4 GB
    Doctor.Strange.in.the.Multiverse.of.Madness.2022.I MAX.1080p.DSNP.WEB-DL.TH5.1.DDP.EN5.1.DDP.Atmos.H.264-MRJ.mkv - 7.5 GB
    Doctor.Strange.in.the.Multiverse.of.Madness.2022.I MAX.1080p.DSNP.WEBDL.H.264.AAC.mkv - 4.0 GB

  2. The Following 7 Users Say Thank You to Duckload.us For This Useful Post:

    agg001 (06-25-2022), bigbang06 (06-25-2022), jackjangri (06-26-2022), kappa (07-03-2022), noi54 (06-30-2022), sawara (06-29-2022), Wesker_TOT (06-26-2022)

  3. #2
    Senior Member
    สมัครเมื่อ
    Jul 2013
    โพสต์
    105
    Thanks
    0
    Thanked 0 Times in 0 Posts
    ขอบคุณครับ

  4. #3
    Senior Member
    สมัครเมื่อ
    Jan 2011
    โพสต์
    811
    Thanks
    1,105
    Thanked 0 Times in 0 Posts
    ขอบคุณครับ

  5. #4
    I'm donate !
    สมัครเมื่อ
    Jun 2011
    โพสต์
    471
    Thanks
    624
    Thanked 40 Times in 29 Posts
    ขอบคุณครับ

  6. #5
    Senior Member
    สมัครเมื่อ
    Dec 2013
    โพสต์
    3,801
    Thanks
    5,706
    Thanked 0 Times in 0 Posts
    ขอบคุณครับ...

  7. #6
    Member
    สมัครเมื่อ
    Sep 2019
    โพสต์
    82
    Thanks
    0
    Thanked 0 Times in 0 Posts
    ขอบคุณครับ

  8. #7
    Senior Member
    สมัครเมื่อ
    Jul 2013
    โพสต์
    3,357
    Thanks
    0
    Thanked 0 Times in 0 Posts
    ขอบคุรครับ

  9. #8
    Senior Member
    สมัครเมื่อ
    Dec 2013
    โพสต์
    651
    Thanks
    599
    Thanked 0 Times in 0 Posts
    ขอบคุณครับบ

+ ตอบกลับกระทู้

ข้อมูลกระทู้

Users Browsing this Thread

ในขณะนี้มี 1 ท่านดูกระทู้อยู่. (0 สมาชิกและ 1 ผู้เยี่ยมชม)

     

กฎการโพสต์ข้อความ

  • ท่าน ไม่สามารถ ตั้งกระทู้ใหม่ได้
  • ท่าน ไม่สามารถ ตอบกระทู้ได้
  • ท่าน ไม่สามารถ แนบไฟล์ได้
  • ท่าน ไม่สามารถ แก้ไขข้อความโพสต์ได้
  • BB code สถานะ เปิด
  • Smilies สถานะ เปิด
  • [IMG] สถานะ เปิด
  • HTML สถานะ ปิด