+ ตอบกลับกระทู้
สรุปผลการค้นหา 1 ถึง 5 จากทั้งหมด 5
  1. #1
    Administrators รูปส่วนตัว Duckload.us
    สมัครเมื่อ
    Dec 2010
    โพสต์
    137,398
    Thanks
    7
    Thanked 143,222 Times in 62,344 Posts

    Thumbs up [ฝรั่ง]-[NETFLIX] Man Vs. Bee (2022) -WEB-DL.EAC-3.Atmos.1080p. [Master]-[พากย์อังกฤษ Atmos 5.1 ไทย 5.1 บรรยายไทย (Master)-อังกฤษ]




    คุณพ่อจอมป่วนอย่างเทรเวอร์พยายามต่อสู้กับผึ้งเจ้าเ ล่ห์ พร้อมดูแลคฤหาสน์สุดหรู จนทำให้เกิดความโกลาหลยิ่งกว่าเดิมในซีรีส์ตลกเรื่อง นี้

    Format : Matroska
    Format version : Version 4
    File size : 668 MiB
    Duration : 19 min 30 s
    Overall bit rate mode : Variable
    Overall bit rate : 4 787 kb/s
    Encoded date : UTC 2022-06-24 13:25:41
    Writing application : mkvmerge v55.0.0 ('Waiting For Space') 64-bit
    Writing library : libebml v1.4.2 + libmatroska v1.6.4

    Video
    ID : 1
    Format : AVC
    Format/Info : Advanced Video Codec
    Format profile : [email protected]
    Format settings : CABAC / 3 Ref Frames
    Format settings, CABAC : Yes
    Format settings, Reference : 3 frames
    Codec ID : V_MPEG4/ISO/AVC
    Duration : 19 min 30 s
    Bit rate mode : Variable
    Bit rate : 3 334 kb/s
    Nominal bit rate : 3 650 kb/s
    Maximum bit rate : 5 475 kb/s
    Width : 1 920 pixels
    Height : 1 080 pixels
    Display aspect ratio : 16:9
    Frame rate mode : Constant
    Frame rate : 25.000 FPS
    Color space : YUV
    Chroma subsampling : 4:2:0
    Bit depth : 8 bits
    Scan type : Progressive
    Bits/(Pixel*Frame) : 0.064
    Stream size : 465 MiB (70%)
    Writing library : x264 core 148 r2727 7d026e8
    Encoding settings : cabac=1 / ref=3 / deblock=1:0:0 / analyse=0x1:0x111 / me=umh / subme=10 / psy=1 / psy_rd=1.00:0.00 / mixed_ref=1 / me_range=24 / chroma_me=1 / trellis=2 / 8x8dct=0 / cqm=0 / deadzone=21,11 / fast_pskip=1 / chroma_qp_offset=-2 / threads=8 / lookahead_threads=1 / sliced_threads=0 / nr=0 / decimate=1 / interlaced=0 / bluray_compat=0 / stitchable=1 / constrained_intra=0 / bframes=2 / b_pyramid=0 / b_adapt=2 / b_bias=0 / direct=3 / weightb=1 / open_gop=0 / weightp=2 / keyint=250 / keyint_min=25 / scenecut=0 / intra_refresh=0 / rc_lookahead=50 / rc=2pass / mbtree=1 / bitrate=3650 / ratetol=1.0 / qcomp=0.50 / qpmin=6 / qpmax=51 / qpstep=4 / cplxblur=20.0 / qblur=0.5 / vbv_maxrate=5475 / vbv_bufsize=7300 / nal_hrd=vbr / filler=0 / ip_ratio=1.40 / aq=1:1.00
    Language : English
    Default : Yes
    Forced : No

    Audio #1
    ID : 2
    Format : E-AC-3 JOC
    Format/Info : Enhanced AC-3 with Joint Object Coding
    Commercial name : Dolby Digital Plus with Dolby Atmos
    Codec ID : A_EAC3
    Duration : 19 min 30 s
    Bit rate mode : Constant
    Bit rate : 768 kb/s
    Channel(s) : 6 channels
    Channel layout : L R C LFE Ls Rs
    Sampling rate : 48.0 kHz
    Frame rate : 31.250 FPS (1536 SPF)
    Compression mode : Lossy
    Stream size : 107 MiB (16%)
    Title : E-AC3 Atmos
    Language : English
    Service kind : Complete Main
    Default : Yes
    Forced : No
    Complexity index : 16
    Number of dynamic objects : 15
    Bed channel count : 1 channel
    Bed channel configuration : LFE

    Audio #2
    ID : 3
    Format : E-AC-3
    Format/Info : Enhanced AC-3
    Commercial name : Dolby Digital Plus
    Codec ID : A_EAC3
    Duration : 19 min 29 s
    Bit rate mode : Constant
    Bit rate : 640 kb/s
    Channel(s) : 6 channels
    Channel layout : L R C LFE Ls Rs
    Sampling rate : 48.0 kHz
    Frame rate : 31.250 FPS (1536 SPF)
    Compression mode : Lossy
    Stream size : 89.2 MiB (13%)
    Title : E-AC3 Thai
    Language : Thai
    Service kind : Complete Main
    Default : No
    Forced : No

    Text #1
    ID : 4
    Format : VobSub
    Muxing mode : zlib
    Codec ID : S_VOBSUB
    Codec ID/Info : Picture based subtitle format used on DVDs
    Duration : 18 min 3 s
    Bit rate : 8 678 b/s
    Count of elements : 176
    Stream size : 1.12 MiB (0%)
    Title : Sub Thai 1080p
    Language : Thai
    Default : No
    Forced : No

    Text #2
    ID : 5
    Format : UTF-8
    Codec ID : S_TEXT/UTF8
    Codec ID/Info : UTF-8 Plain Text
    Duration : 18 min 4 s
    Bit rate : 94 b/s
    Count of elements : 176
    Stream size : 12.4 KiB (0%)
    Title : Sub Thai SRT
    Language : Thai
    Default : No
    Forced : No

    Text #3
    ID : 6
    Format : PGS
    Muxing mode : zlib
    Codec ID : S_HDMV/PGS
    Codec ID/Info : Picture based subtitle format used on BDs/HD-DVDs
    Duration : 18 min 4 s
    Bit rate : 26.0 kb/s
    Count of elements : 352
    Stream size : 3.36 MiB (1%)
    Title : Sub Thai PGS
    Language : Thai
    Default : No
    Forced : No

    Text #4
    ID : 7
    Format : PGS
    Muxing mode : zlib
    Codec ID : S_HDMV/PGS
    Codec ID/Info : Picture based subtitle format used on BDs/HD-DVDs
    Duration : 18 min 4 s
    Bit rate : 43.6 kb/s
    Count of elements : 352
    Stream size : 5.63 MiB (1%)
    Title : Sub Thai PGS NETFLIX
    Language : Thai
    Default : Yes
    Forced : No

    Text #5
    ID : 8
    Format : UTF-8
    Codec ID : S_TEXT/UTF8
    Codec ID/Info : UTF-8 Plain Text
    Duration : 16 min 38 s
    Bit rate : 40 b/s
    Count of elements : 181
    Stream size : 4.98 KiB (0%)
    Title : Sub English SRT
    Language : English
    Default : No
    Forced : No






    Download:filecondo
    Man_Vs._Bee_S01E09_Chapter_9_(2022).mkv
    http://www.filecondo.com/dl.php?f=Td54d31O50Qx

    Man_Vs._Bee_S01E08_Chapter_8_(2022).mkv
    http://www.filecondo.com/dl.php?f=4ea09e1O50Os

    Man_Vs._Bee_S01E07_Chapter_7_(2022).mkv
    http://www.filecondo.com/dl.php?f=62a7d11O50JE

    Man_Vs._Bee_S01E06_Chapter_6_(2022).mkv
    http://www.filecondo.com/dl.php?f=7db2d51O50H2

    Man_Vs._Bee_S01E05_Chapter_5_(2022).mkv
    http://www.filecondo.com/dl.php?f=D301151O50Dg

    Man_Vs._Bee_S01E04_Chapter_4_(2022).mkv
    http://www.filecondo.com/dl.php?f=Qc11691O50Cg

    Man_Vs._Bee_S01E03_Chapter_3_(2022).mkv
    http://www.filecondo.com/dl.php?f=x907e01O50Bi

    Man_Vs._Bee_S01E02_Chapter_2_(2022).mkv
    http://www.filecondo.com/dl.php?f=ac97e01O50Aj

    Man_Vs._Bee_S01E01_Chapter_1_(2022).mkv
    http://www.filecondo.com/dl.php?f=gd28171O50zp

    Download:cornfile
    https://www.cornfile.com/kqyrbeubcgym

  2. The Following 3 Users Say Thank You to Duckload.us For This Useful Post:

    jackjangri (06-26-2022), rakterkonne (06-25-2022), Wesker_TOT (06-26-2022)

  3. #2
    Member
    สมัครเมื่อ
    Nov 2021
    โพสต์
    45
    Thanks
    0
    Thanked 0 Times in 0 Posts
    ขอบคุณครับ

  4. #3
    I'm donate !
    สมัครเมื่อ
    Jun 2011
    โพสต์
    469
    Thanks
    623
    Thanked 40 Times in 29 Posts
    ขอบคุณครับ

  5. #4
    Senior Member
    สมัครเมื่อ
    Dec 2013
    โพสต์
    3,787
    Thanks
    5,692
    Thanked 0 Times in 0 Posts
    ขอบคุณครับ...

  6. #5
    Senior Member
    สมัครเมื่อ
    Jul 2013
    โพสต์
    3,357
    Thanks
    0
    Thanked 0 Times in 0 Posts
    ขอบคุณครับ

+ ตอบกลับกระทู้

ข้อมูลกระทู้

Users Browsing this Thread

ในขณะนี้มี 1 ท่านดูกระทู้อยู่. (0 สมาชิกและ 1 ผู้เยี่ยมชม)

     

กฎการโพสต์ข้อความ

  • ท่าน ไม่สามารถ ตั้งกระทู้ใหม่ได้
  • ท่าน ไม่สามารถ ตอบกระทู้ได้
  • ท่าน ไม่สามารถ แนบไฟล์ได้
  • ท่าน ไม่สามารถ แก้ไขข้อความโพสต์ได้
  • BB code สถานะ เปิด
  • Smilies สถานะ เปิด
  • [IMG] สถานะ เปิด
  • HTML สถานะ ปิด