+ ตอบกลับกระทู้
สรุปผลการค้นหา 1 ถึง 2 จากทั้งหมด 2
  1. #1
    Administrators รูปส่วนตัว Duckload.us
    สมัครเมื่อ
    Dec 2010
    โพสต์
    137,493
    Thanks
    7
    Thanked 143,437 Times in 62,400 Posts

    Thumbs up [ฝรั่ง]- Jurassic World Dominion (2022) จูราสสิค เวิลด์ ทวงคืนอาณาจักร HDTS ชัดสุดในตอนนี้-WEB-DL.H.264.720p. [หนังซูม]-[พากย์ไทยโรง]




    Jurassic World Dominion เตรียมพบกับบทสรุปอันยิ่งใหญ่แห่งยุคจูราสสิค ทุกท่านจะได้พบกับการรวมตัวกันครั้งแรกของคน 2 รุ่น คริส แพรตต์ และไบรซ์ ดัลลัส ฮาวเวิร์ด ร่วมงานกับ ลอร่า เดิร์น ผู้ชนะรางวัลออสการ์, เจฟฟ์ โกลด์บลูม และแซม นีล ใน Jurassic World Dominion จูราสสิค เวิลด์: ทวงคืนอาณาจักร การผจญภัยครั้งใหม่ที่ยิ่งใหญ่ น่าตื่นเต้น เข้ากับยุคสมัย เป็นการผจญภัยที่ครอบคลุมทั่วโลก นี่คือผลงานจากผู้สร้างสรรค์และผู้กำกับ Jurassic World โคลิน เทรเวอร์โรว์ Jurassic World Dominion จูราสสิค เวิลด์: ทวงคืนอาณาจักร คือเหตุการณ์ที่เกิดขึ้น 4 ปีหลังจากอิสลาร์ นูบลาร์ ถูกทำลาย ตอนนี้ ไดโนเสาร์ยังมีชีวิตอยู่—และออกล่า—ไปพร้อมกับมนุษย์ ทั่วโลก ความสมดุลอันเปราะบางนี้จะเปลี่ยนโฉมอนาคตและตัดสินว ่า มนุษย์จะยังคงเป็นผู้ล่าที่อยู่ลำดับปลายสุดบนดวงดาว และยังคงอยู่ร่วมกับสิ่งมีชีวิตที่น่าสะพรึงกลัวมากท ี่สุดในประวัติศาสตร์

    Video
    ID : 1
    Format : AVC
    Format/Info : Advanced Video Codec
    Format profile : [email protected]
    Format settings, CABAC : Yes
    Format settings, RefFrames : 4 frames
    Codec ID : V_MPEG4/ISO/AVC
    Duration : 2 h 20 min
    Bit rate : 2 037 kb/s
    Width : 1 280 pixels
    Height : 568 pixels
    Display aspect ratio : 2.25:1
    Frame rate mode : Constant
    Frame rate : 24.000 FPS
    Color space : YUV
    Chroma subsampling : 4:2:0
    Bit depth : 8 bits
    Scan type : Progressive
    Bits/(Pixel*Frame) : 0.117
    Stream size : 2.00 GiB (80%)
    Writing library : x264 core 146 r2538 121396c
    Encoding settings : cabac=1 / ref=3 / deblock=1:0:0 / analyse=0x3:0x133 / me=hex / subme=7 / psy=1 / psy_rd=1.00:0.00 / mixed_ref=1 / me_range=16 / chroma_me=1 / trellis=1 / 8x8dct=1 / cqm=0 / deadzone=21,11 / fast_pskip=1 / chroma_qp_offset=-2 / threads=3 / lookahead_threads=1 / sliced_threads=0 / nr=0 / decimate=1 / interlaced=0 / bluray_compat=0 / constrained_intra=0 / bframes=3 / b_pyramid=2 / b_adapt=1 / b_bias=0 / direct=1 / weightb=1 / open_gop=0 / weightp=2 / keyint=250 / keyint_min=25 / scenecut=40 / intra_refresh=0 / rc_lookahead=40 / rc=crf / mbtree=1 / crf=20.0 / qcomp=0.60 / qpmin=10 / qpmax=51 / qpstep=4 / ip_ratio=1.40 / aq=1:1.00
    Default : Yes
    Forced : No

    Audio #1
    ID : 2
    Format : AC-3
    Format/Info : Audio Coding 3
    Format settings, Endianness : Big
    Codec ID : A_AC3
    Duration : 2 h 20 min
    Bit rate mode : Constant
    Bit rate : 320 kb/s
    Channel(s) : 2 channels
    Channel positions : Front: L R
    Sampling rate : 48.0 kHz
    Frame rate : 31.250 FPS (1536 SPF)
    Bit depth : 16 bits
    Compression mode : Lossy
    Delay relative to video : -458 ms
    Stream size : 322 MiB (13%)
    Language : Thai
    Service kind : Complete Main
    Default : Yes
    Forced : No

    Audio #2
    ID : 3
    Format : AAC
    Format/Info : Advanced Audio Codec
    Format profile : LC
    Codec ID : A_AAC
    Duration : 2 h 20 min
    Bit rate : 192 kb/s
    Channel(s) : 2 channels
    Channel positions : Front: L R
    Sampling rate : 48.0 kHz
    Frame rate : 46.875 FPS (1024 SPF)
    Compression mode : Lossy
    Delay relative to video : -292 ms
    Stream size : 194 MiB (8%)
    Language : English
    Default : No
    Forced : No



    Download:filecondo
    Jurassic.World.Dominion.2022.720p.NEW.HDTS.x264.AA C.mkv
    http://www.filecondo.com/dl.php?f=Za4cdc1O5NkJ

    Jurassic.World.Dominion.2022.720p.NEW.HDTS.x264.AA C.part1.rar
    http://www.filecondo.com/dl.php?f=x60c421O5Irh
    Jurassic.World.Dominion.2022.720p.NEW.HDTS.x264.AA C.part2.rar
    http://www.filecondo.com/dl.php?f=p6051b1O5IqP
    **โหลดแบบแบ่งไฟล์ก่อนนะครับ ระบบอัพแบบไฟล์เดียวมีปัญหา***

    Download:cornfile
    https://www.cornfile.com/15jfewl9uya4
    https://www.cornfile.com/aeda7v4p49bm

  2. The Following 2 Users Say Thank You to Duckload.us For This Useful Post:

    santanmoon (06-29-2022), Wesker_TOT (06-28-2022)

  3. #2
    Senior Member
    สมัครเมื่อ
    Dec 2013
    โพสต์
    3,801
    Thanks
    5,706
    Thanked 0 Times in 0 Posts
    ขอบคุณครับ...

+ ตอบกลับกระทู้

ข้อมูลกระทู้

Users Browsing this Thread

ในขณะนี้มี 1 ท่านดูกระทู้อยู่. (0 สมาชิกและ 1 ผู้เยี่ยมชม)

     

กฎการโพสต์ข้อความ

  • ท่าน ไม่สามารถ ตั้งกระทู้ใหม่ได้
  • ท่าน ไม่สามารถ ตอบกระทู้ได้
  • ท่าน ไม่สามารถ แนบไฟล์ได้
  • ท่าน ไม่สามารถ แก้ไขข้อความโพสต์ได้
  • BB code สถานะ เปิด
  • Smilies สถานะ เปิด
  • [IMG] สถานะ เปิด
  • HTML สถานะ ปิด