+ ͺѺз
ػšä 1 ֧ 3 ҡ 3
  1. #1
    Administrators ٻǹ Duckload.us
    Ѥ
    Dec 2010
    ʵ
    137,508
    Thanks
    7
    Thanked 143,447 Times in 62,405 Posts

    Thumbs up []-The Deep House ҹҴ §ѧ 5.1 Ѻ-WEB-DL.H.264.1080p. [Modified]-[Soundtrack (Master)]



    The Deep House ˹ѧǡǷЪǹسͼաѹ㹺ҹԧ
    ˹ѧҶ֧ѡٷٺǨʶҹ ҧҧ зӹŧǨҹҧ ·ǡҷ駤Һҹѧԭҳԧ
    ˹ѧӡѺ¹ ūͧ ʵ Ѻ ͧ ҡ Leatherface (2017) йʴ¤ , ԡ Թ

    Format : Matroska
    Format version : Version 4
    File size : 3.63 GiB
    Duration : 1 h 21 min
    Overall bit rate : 6 349 kb/s
    Movie name : Modified by Dirtydog
    Encoded date : UTC 2022-06-30 13:31:11
    Writing application : mkvmerge v66.0.0 ('Josie') 64-bit
    Writing library : libebml v1.4.2 + libmatroska v1.6.4

    Video
    ID : 1
    Format : AVC
    Format/Info : Advanced Video Codec
    Format profile : [email protected]
    Format settings : CABAC / 2 Ref Frames
    Format settings, CABAC : Yes
    Format settings, Reference frames : 2 frames
    Codec ID : V_MPEG4/ISO/AVC
    Duration : 1 h 21 min
    Bit rate : 5 944 kb/s
    Width : 1 920 pixels
    Height : 1 080 pixels
    Display aspect ratio : 16:9
    Frame rate mode : Constant
    Frame rate : 25.000 FPS
    Color space : YUV
    Chroma subsampling : 4:2:0
    Bit depth : 8 bits
    Scan type : Progressive
    Bits/(Pixel*Frame) : 0.115
    Stream size : 3.39 GiB (94%)
    Writing library : x264 core 155 r2901 7d0ff22
    Default : Yes
    Forced : No
    Color range : Limited
    Color primaries : BT.709
    Transfer characteristics : BT.709
    Matrix coefficients : BT.709

    Audio
    ID : 2
    Format : AC-3
    Format/Info : Audio Coding 3
    Commercial name : Dolby Digital
    Codec ID : A_AC3
    Duration : 1 h 21 min
    Bit rate mode : Constant
    Bit rate : 384 kb/s
    Channel(s) : 6 channels
    Channel layout : L R C LFE Ls Rs
    Sampling rate : 48.0 kHz
    Frame rate : 31.250 FPS (1536 SPF)
    Compression mode : Lossy
    Stream size : 225 MiB (6%)
    Language : English
    Service kind : Complete Main
    Default : Yes
    Forced : No

    Text #1
    ID : 3
    Format : PGS
    Muxing mode : zlib
    Codec ID : S_HDMV/PGS
    Codec ID/Info : Picture based subtitle format used on BDs/HD-DVDs
    Duration : 1 h 14 min
    Bit rate : 25.2 kb/s
    Count of elements : 1458
    Stream size : 13.5 MiB (0%)
    Title : PGS-Angsana
    Language : Thai
    Default : Yes
    Forced : No

    Text #2
    ID : 4
    Format : PGS
    Muxing mode : zlib
    Codec ID : S_HDMV/PGS
    Codec ID/Info : Picture based subtitle format used on BDs/HD-DVDs
    Duration : 1 h 14 min
    Bit rate : 24.5 kb/s
    Count of elements : 1458
    Stream size : 13.1 MiB (0%)
    Title : PGS-Droidsan
    Language : Thai
    Default : Yes
    Forced : No

    Text #3
    ID : 5
    Format : UTF-8
    Codec ID : S_TEXT/UTF8
    Codec ID/Info : UTF-8 Plain Text
    Duration : 1 h 14 min
    Bit rate : 86 b/s
    Count of elements : 729
    Stream size : 47.4 KiB (0%)
    Title : SRT
    Language : Thai
    Default : Yes
    Forced : No






    Download:filecondo
    http://www.filecondo.com/dl.php?f=E4c4751O7d2D
    Download:cornfile
    https://www.cornfile.com/6y2awivdfaw6

  2. The Following 4 Users Say Thank You to Duckload.us For This Useful Post:

    dulobobo (07-04-2022), gozilla02 (07-02-2022), jackjangri (07-02-2022), mettset (07-02-2022)

  3. #2
    I'm donate !
    Ѥ
    Jun 2011
    ʵ
    471
    Thanks
    624
    Thanked 40 Times in 29 Posts
    thankyou...

  4. #3
    Senior Member
    Ѥ
    Jul 2013
    ʵ
    105
    Thanks
    0
    Thanked 0 Times in 0 Posts
    ѹվҡѺ

+ ͺѺз

šз

Users Browsing this Thread

㹢й 1 ҹ١з. (0 Ҫԡ 1 )

     

ʵͤ

  • ҹ ö 駡з
  • ҹ ö ͺз
  • ҹ ö
  • ҹ ö 䢢ͤʵ