+ ตอบกลับกระทู้
สรุปผลการค้นหา 1 ถึง 2 จากทั้งหมด 2
  1. #1
    Administrators รูปส่วนตัว Duckload.us
    สมัครเมื่อ
    Dec 2010
    โพสต์
    137,508
    Thanks
    7
    Thanked 143,446 Times in 62,405 Posts

    Thumbs up [ฝรั่ง] Father of the Bride (2022) พ่อตางุ้งงิ้งจอมหงุดหงิด [พากย์:อังกฤษ/ไทย มาสเตอร์][SUB:ไทย/อังกฤษ][1080p]



    เรื่องราวของคุณพ่อที่ต้องเผชิญกับงานแต่งงานของลูกส าวที่กำลังจะมีขึ้นผ่านมุมมองของความสัมพันธ์อันหลาก หลายภายในครอบครัวชาวคิวบา-อเมริกันขนาดใหญ่ที่แผ่ขยายออกไป

    Format : Matroska
    Format version : Version 4
    File size : 3.99 GiB
    Duration : 1 h 57 min
    Overall bit rate : 4 860 kb/s
    Movie name : Father.of.the.Bride.2022.WEBRip.x264_©GOLD CUP™_WWW.TT-TORRENT.COM

    Video
    ID : 1
    Format : AVC
    Format/Info : Advanced Video Codec
    Format profile : [email protected]
    Format settings : CABAC / 1 Ref Frames
    Format settings, CABAC : Yes
    Format settings, Reference : 1 frame
    Format settings, GOP : M=1, N=25
    Codec ID : V_MPEG4/ISO/AVC
    Duration : 1 h 57 min
    Bit rate mode : Constant
    Bit rate : 4 353 kb/s
    Width : 1 920 pixels
    Height : 804 pixels
    Display aspect ratio : 2.40:1
    Frame rate mode : Constant
    Frame rate : 23.976 (24000/1001) FPS
    Color space : YUV
    Chroma subsampling : 4:2:0
    Bit depth : 8 bits
    Scan type : Progressive
    Bits/(Pixel*Frame) : 0.118
    Stream size : 3.55 GiB (89%)
    Title : Father.of.the.Bride.2022.WEBRip.x264_©GOLD CUP™
    Language : English
    Default : Yes
    Forced : No

    Audio #1
    ID : 2
    Format : AAC LC
    Format/Info : Advanced Audio Codec Low Complexity
    Codec ID : A_AAC-2
    Duration : 1 h 57 min
    Bit rate : 256 kb/s
    Channel(s) : 2 channels
    Channel layout : L R
    Sampling rate : 48.0 kHz
    Frame rate : 46.875 FPS (1024 SPF)
    Compression mode : Lossy
    Stream size : 215 MiB (5%)
    Title : En.2.0.AAC.256k
    Language : English
    Default : Yes
    Forced : No

    Audio #2
    ID : 3
    Format : AC-3
    Format/Info : Audio Coding 3
    Commercial name : Dolby Digital
    Codec ID : A_AC3
    Duration : 1 h 57 min
    Bit rate mode : Constant
    Bit rate : 192 kb/s
    Channel(s) : 2 channels
    Channel layout : L R
    Sampling rate : 48.0 kHz
    Frame rate : 31.250 FPS (1536 SPF)
    Compression mode : Lossy
    Stream size : 161 MiB (4%)
    Title : Th.2.0.AC3.192k
    Language : Thai
    Service kind : Complete Main
    Default : Yes
    Forced : No

    Text #1
    ID : 4
    Format : PGS
    Muxing mode : zlib
    Codec ID : S_HDMV/PGS
    Codec ID/Info : Picture based subtitle format used on BDs/HD-DVDs
    Duration : 1 h 50 min
    Bit rate : 52.4 kb/s
    Count of elements : 4064
    Stream size : 41.2 MiB (1%)
    Title : Th.3.100.90.White
    Language : Thai
    Default : No
    Forced : No

    Text #2
    ID : 5
    Format : PGS
    Muxing mode : zlib
    Codec ID : S_HDMV/PGS
    Codec ID/Info : Picture based subtitle format used on BDs/HD-DVDs
    Duration : 1 h 51 min
    Bit rate : 54.2 kb/s
    Count of elements : 4262
    Stream size : 43.4 MiB (1%)
    Title : EN.110.3.83.Yellow
    Language : English
    Default : No
    Forced : No

    Text #3
    ID : 6
    Format : PGS
    Muxing mode : zlib
    Codec ID : S_HDMV/PGS
    Codec ID/Info : Picture based subtitle format used on BDs/HD-DVDs
    Duration : 1 h 51 min
    Bit rate : 58.8 kb/s
    Count of elements : 4448
    Stream size : 47.1 MiB (1%)
    Title : EN.SDH.110.3.83.Oreng
    Language : English
    Default : No
    Forced : No

    Text #4
    ID : 7
    Format : UTF-8
    Codec ID : S_TEXT/UTF8
    Codec ID/Info : UTF-8 Plain Text
    Duration : 1 h 16 min
    Bit rate : 3 b/s
    Count of elements : 80
    Stream size : 2.07 KiB (0%)
    Title : English-Force
    Language : English
    Default : No
    Forced : Yes





    Download:filecondo
    http://www.filecondo.com/dl.php?f=D045331O7wZt
    Download:cornfile
    https://www.cornfile.com/ot9coog4irzo

  2. The Following 3 Users Say Thank You to Duckload.us For This Useful Post:

    Jodz14 (07-02-2022), noi54 (07-05-2022), sawara (07-03-2022)

  3. #2
    Senior Member
    สมัครเมื่อ
    Jul 2013
    โพสต์
    3,357
    Thanks
    0
    Thanked 0 Times in 0 Posts
    ขอบคุรครับ

+ ตอบกลับกระทู้

ข้อมูลกระทู้

Users Browsing this Thread

ในขณะนี้มี 1 ท่านดูกระทู้อยู่. (0 สมาชิกและ 1 ผู้เยี่ยมชม)

     

กฎการโพสต์ข้อความ

  • ท่าน ไม่สามารถ ตั้งกระทู้ใหม่ได้
  • ท่าน ไม่สามารถ ตอบกระทู้ได้
  • ท่าน ไม่สามารถ แนบไฟล์ได้
  • ท่าน ไม่สามารถ แก้ไขข้อความโพสต์ได้
  • BB code สถานะ เปิด
  • Smilies สถานะ เปิด
  • [IMG] สถานะ เปิด
  • HTML สถานะ ปิด