+ ตอบกลับกระทู้
สรุปผลการค้นหา 1 ถึง 4 จากทั้งหมด 4
  1. #1
    Administrators รูปส่วนตัว Duckload.us
    สมัครเมื่อ
    Dec 2010
    โพสต์
    137,562
    Thanks
    7
    Thanked 143,535 Times in 62,435 Posts

    Thumbs up [ฝรั่ง] Till Death (2021) จนกว่าจะตาย [พากย์:อังกฤษ/ไทย มาสเตอร์][SUB:ไทย/อังกฤษ][1080p]



    หลังจากค่ำคืนสุดโรแมนติกที่บ้านริมทะเลสาบอันเงียบส งบ ผู้หญิงคนหนึ่งตื่นขึ้นมาพร้อมกับสามีที่เสียชีวิตแล ้วถูกใส่กุญแจมือ ติดอยู่และโดดเดี่ยวในช่วงฤดูหนาว เธอต้องต่อสู้กับนักฆ่าที่ได้รับการว่าจ้างเพื่อหนีจ ากแผนการบิดเบี้ยวของคู่สมรสที่ล่วงลับไปแล้ว

    Format : Matroska
    Format version : Version 4
    File size : 3.86 GiB
    Duration : 1 h 28 min
    Overall bit rate : 6 227 kb/s
    Movie name : Till.Death.2021.1080p.WEBRip.x264_©GOLD CUP™_WWW.TT-TORRENT.COM

    Video
    ID : 1
    Format : AVC
    Format/Info : Advanced Video Codec
    Format profile : [email protected]
    Format settings : CABAC / 1 Ref Frames
    Format settings, CABAC : Yes
    Format settings, Reference : 1 frame
    Format settings, GOP : M=1, N=25
    Codec ID : V_MPEG4/ISO/AVC
    Duration : 1 h 28 min
    Bit rate mode : Constant
    Bit rate : 5 794 kb/s
    Width : 1 920 pixels
    Height : 860 pixels
    Display aspect ratio : 2.25:1
    Frame rate mode : Constant
    Frame rate : 29.970 (30000/1001) FPS
    Color space : YUV
    Chroma subsampling : 4:2:0
    Bit depth : 8 bits
    Scan type : Progressive
    Bits/(Pixel*Frame) : 0.117
    Stream size : 3.59 GiB (93%)
    Title : Till.Death.2021.1080p.WEBRip.x264_©GOLD CUP™
    Language : English
    Default : Yes
    Forced : No

    Audio #1
    ID : 2
    Format : AAC LC
    Format/Info : Advanced Audio Codec Low Complexity
    Codec ID : A_AAC-2
    Duration : 1 h 28 min
    Bit rate : 224 kb/s
    Channel(s) : 6 channels
    Channel layout : C L R Ls Rs LFE
    Sampling rate : 48.0 kHz
    Frame rate : 46.875 FPS (1024 SPF)
    Compression mode : Lossy
    Stream size : 142 MiB (4%)
    Title : En.AAC_224 kbs.6 channels
    Language : English
    Default : Yes
    Forced : No

    Audio #2
    ID : 3
    Format : AC-3
    Format/Info : Audio Coding 3
    Commercial name : Dolby Digital
    Codec ID : A_AC3
    Duration : 1 h 28 min
    Bit rate mode : Constant
    Bit rate : 192 kb/s
    Channel(s) : 2 channels
    Channel layout : L R
    Sampling rate : 48.0 kHz
    Frame rate : 31.250 FPS (1536 SPF)
    Compression mode : Lossy
    Stream size : 122 MiB (3%)
    Title : Th.2.0.AC3.192k
    Language : Thai
    Service kind : Complete Main
    Default : Yes
    Forced : No

    Text #1
    ID : 4
    Format : PGS
    Muxing mode : zlib
    Codec ID : S_HDMV/PGS
    Codec ID/Info : Picture based subtitle format used on BDs/HD-DVDs
    Duration : 1 h 21 min
    Bit rate : 19.7 kb/s
    Count of elements : 1154
    Stream size : 11.5 MiB (0%)
    Title : Th.3.100.90.White
    Language : Thai
    Default : No
    Forced : No

    Text #2
    ID : 5
    Format : PGS
    Muxing mode : zlib
    Codec ID : S_HDMV/PGS
    Codec ID/Info : Picture based subtitle format used on BDs/HD-DVDs
    Duration : 39 min 44 s
    Bit rate : 15.8 kb/s
    Count of elements : 532
    Stream size : 4.50 MiB (0%)
    Title : EN.110.3.83.Yellow
    Language : English
    Default : No
    Forced : No

    Text #3
    ID : 6
    Format : PGS
    Muxing mode : zlib
    Codec ID : S_HDMV/PGS
    Codec ID/Info : Picture based subtitle format used on BDs/HD-DVDs
    Duration : 42 min 36 s
    Bit rate : 20.2 kb/s
    Count of elements : 790
    Stream size : 6.17 MiB (0%)
    Title : EN.SDH.110.3.83.Perple
    Language : English
    Default : No
    Forced : No






    Download:filecondo
    Till.Death.2021.1080p.WEBRip.x264_GOLD_CUP.mkv
    http://www.filecondo.com/dl.php?f=778fea1O7S6V
    or
    Till.Death.2021.1080p.WEBRip.x264_GOLD_CUP.part1.r ar
    http://www.filecondo.com/dl.php?f=k16f2e1O7R85
    Till.Death.2021.1080p.WEBRip.x264_GOLD_CUP.part2.r ar
    http://www.filecondo.com/dl.php?f=9aba6d1O7R99
    Till.Death.2021.1080p.WEBRip.x264_GOLD_CUP.part3.r ar
    http://www.filecondo.com/dl.php?f=K4a2a51O7R6p

    Download:cornfile
    https://www.cornfile.com/klas86iv08yx

  2. The Following 5 Users Say Thank You to Duckload.us For This Useful Post:

    dulobobo (07-04-2022), Jodz14 (07-03-2022), kappa (07-03-2022), mettset (07-09-2022), sawara (07-03-2022)

  3. #2
    Senior Member
    สมัครเมื่อ
    Jul 2012
    โพสต์
    8,036
    Thanks
    0
    Thanked 0 Times in 0 Posts
    ขอบคุณมากจ้า

  4. #3
    Senior Member
    สมัครเมื่อ
    Jul 2013
    โพสต์
    3,387
    Thanks
    0
    Thanked 0 Times in 0 Posts
    ขอบคุณครับ

  5. #4
    Senior Member
    สมัครเมื่อ
    Jul 2013
    โพสต์
    105
    Thanks
    0
    Thanked 0 Times in 0 Posts
    ขอบคุณครับ

+ ตอบกลับกระทู้

ข้อมูลกระทู้

Users Browsing this Thread

ในขณะนี้มี 1 ท่านดูกระทู้อยู่. (0 สมาชิกและ 1 ผู้เยี่ยมชม)

     

กฎการโพสต์ข้อความ

  • ท่าน ไม่สามารถ ตั้งกระทู้ใหม่ได้
  • ท่าน ไม่สามารถ ตอบกระทู้ได้
  • ท่าน ไม่สามารถ แนบไฟล์ได้
  • ท่าน ไม่สามารถ แก้ไขข้อความโพสต์ได้
  • BB code สถานะ เปิด
  • Smilies สถานะ เปิด
  • [IMG] สถานะ เปิด
  • HTML สถานะ ปิด